I'm just loving these guys !

HighSpeed downloads:
Added TitleSpeed
11-04-2014IN.TIME.2011.R5.DVDRIP.XVID.CLEAR.AC3.5.1.HQ.HIVE-CM82178 Kb/s
10-04-2014In.Time.2011.R5.DVDRip.XVID.Clear.AC3.5.1.HQ.Hive-CM8.rar1154 Kb/s
10-04-2014[COMPLETE]In.Time.2011.R5.DVDRip.XVID.Clear.AC3.5.1.HQ.Hive-CM8.zip1375 Kb/s
15-04-2014[FULL RELEASE]In.Time.2011.R5.DVDRip.XVID.Clear.AC3.5.1.HQ.Hive-CM81903 Kb/s
10-04-2014[FULL]In.Time.2011.R5.DVDRip.XVID.Clear.AC3.5.1.HQ.Hive-CM82214 Kb/s
13-04-2014[HIGH SPEED]In.Time.2011.R5.DVDRip.XVID.Clear.AC3.5.1.HQ.Hive-CM81566 Kb/s
12-04-2014[TRUSTED]In.Time.2011.R5.DVDRip.XVID.Clear.AC3.5.1.HQ.Hive-CM81413 Kb/s
  Added: 03 Dec 2011 23:51:45
  Checked: 26 Apr 2012 07:39:43
  Tracker(s): http://tracker.thepiratebay.org/announce
udp://tracker.openbittorrent.com:80
udp://tracker.ccc.de:80
udp://tracker.publicbt.com:80
http://cpleft.com:2710/announce
udp://tracker.1337x.org:80/announce
http://secure.pow7.com/announce
http://tracker.novalayer.org:6969/announce
http://tracker.torrentbay.to:6969/announce
http://announce.torrentsmd.com:6969/announce
http://exodus.desync.com/announce
http://exodus.desync.com:6969/announce
http://fr33dom.h33t.com:3310/announce
http://inferno.demonoid.me:3412/announce
  Hash: DFED1974AAD5792335CD50FE56AB8ECCFD325FF9
  File(s): HDSceneRG.txt - 115
In.Time.2011.R5.DVDRip.XVID.Clear.AC3.5.1.HQ.Hive-CM8.avi - 1723170816
In.Time.2011.R5.DVDRip.XVID.Clear.AC3.5.1.HQ.Hive-CM8.nfo - 5571
Torrent downloaded from Demonoid.me.txt - 46
att-networks.com.txt - 39
darkcore.me.txt - 96
sample.avi - 37107712
sceneunderground.org.txt - 77
  Description:
[img]http://img10.imageshack.us/img10/945/intime.jpg[/img]
[code]
In.Time.2011.R5.DVDRip.XVID.Clear.AC3.5.1.HQ.Hive-CM8
Thx Hive
CM8 Doing It Right The First Time 
  Cleared line  
Sources:
Video: Russian DVD-9
Vremya.2011.DVD9
Audio: Mistere Proper R5 Line
thx
Info:
Last 3 days i had 12h workshifts each - some of us have to work in real life8 
will try to get you the missed movies asap.
But now to this Movie. 
Encode:
There are already loads of versions around, i am sure you have collected at least 3 versions
already, and you are not satisfied with any of it for sure.
This is the version you shouldnt miss.
There is either the hollow line that sounds like a mic or the proper line, which has a buzz like
crazy. 
But that is the better audio to begin with, removing the buzz was very easy, just took me couple
mins. 
what took ages was that other rumbling sounding noise in the background which was noticeable after
the buzz was gone, that was the only thing standing in the way of a great line.
Removing that took me more than 8h.
Needed 15 steps in restoration,i didnt want to touch the voices, so i had to be careful.
that background noise is still very slightly there, sounds as perfect now as possible, entered that
final audio back into the russian 5.1 track and it was ready to go.
To the Video: 
the dvd was very good, just the typical r5 cleaning was needed.
sharpness,rgb,brightness and denoise.
got very nice in the end.
Quality approved
check extra long sample 
enjoy
Video: 720x304 @bitrate 1800 2pass
Audio: English AC3 5.1 @384
Sample: yes extra long included
http://www.imdb.com/title/tt1637688/
General
Complete name                  : In.Time.2011.R5.DVDRip.XVID.Clear.AC3.5.1.HQ.Hive-CM8.avi
Format                         : AVI
Format/Info                    : Audio Video Interleave
File size                      : 1.60 GiB
Duration                       : 1h 44mn
Overall bit rate               : 2 193 Kbps
Writing application            : Nandub v1.0rc2
Writing library                : Nandub build 1853/release
Video
ID                             : 0
Format                         : MPEG-4 Visual
Format profile                 : Advanced Simple@L5
Format settings, BVOP          : 2
Format settings, QPel          : Yes
Format settings, GMC           : No warppoints
Format settings, Matrix        : Default  H.263 
Muxing mode                    : Packed bitstream
Codec ID                       : XVID
Codec ID/Hint                  : XviD
Duration                       : 1h 44mn
Bit rate                       : 1 800 Kbps
Width                          : 720 pixels
Height                         : 304 pixels
Display aspect ratio           : 2.35:1
Frame rate                     : 25.000 fps
Color space                    : YUV
Chroma subsampling             : 4:2:0
Bit depth                      : 8 bits
Scan type                      : Progressive
Compression mode               : Lossy
Bits/ Pixel Frame              : 0.329
Stream size                    : 1.32 GiB  82  
Writing library                : XviD 1.2.1  UTC 2008-12-04 
Audio
ID                             : 1
Format                         : AC-3
Format/Info                    : Audio Coding 3
Mode extension                 : CM  complete main 
Codec ID                       : 2000
Duration                       : 1h 44mn
Bit rate mode                  : Constant
Bit rate                       : 384 Kbps
Channel s                      : 6 channels
Channel positions              : Front: L C R, Side: L R, LFE
Sampling rate                  : 48.0 KHz
Bit depth                      : 16 bits
Compression mode               : Lossy
Stream size                    : 288 MiB  18  
Alignment                      : Split accross interleaves
Interleave, duration           : 40 ms  1.00 video frame 
Interleave, preload duration   : 500 ms
Plot:
In the not-too-distant future the aging gene has been switched off. To avoid overpopulation, 
time has become the currency and the way people pay for luxuries and necessities. 
The rich can live forever, while the rest try to negotiate for their immortality. 
A poor young man who comes into a fortune of time, though too late to help his mother from dying. 
He ends up on the run from a police force known as   39;time keepers  39;. 
Cast:
Cillian Murphy ... Raymond Leon
Justin Timberlake ... Will Salas
Amanda Seyfried ... Sylvia Weis
Shyloh Oostwald ... Maya
[/code]
Screens:
[img]http://img26.imageshack.us/img26/738/11688218.png/img]
[img]http://img838.imageshack.us/img838/4001/59037408.png/img]
[img]http://img855.imageshack.us/img855/4314/46958160.png/img]
[img]http://img811.imageshack.us/img811/2079/23508275.png/img]
[img]http://img59.imageshack.us/img59/408/46532817.png/img]
[img]http://img403.imageshack.us/img403/2914/98341682.png/img]  
  Similar torrents:

Free images hosting for your posts




 

Recent searches:
Virtual Dj Home Free american hustle Da Vincis Demons unluckylady The Thornbirds soundtrack My Wife Caught Me Assfucking Her Mother BARBRA STREISAND BARRY GIBB GUILTY teresa orlowski magic mike ita brus wilis Grimm S03E16 HDTV x264 LOL game of thrones BOMBAY BICYCLE CLUB EASIER paulina BASEMENT JAXX GOOD LUCK god hand ps2 road trip ita mario merola pollyword DiskInternals Uneraser crack sony vegas 9 Italo Disco Hits gkr xxx anale la desolazione di smaug dfdfab 9 cuelux les nouveaux chiens de garde BOMBAY BICYCLE CLUB SO LONG SEE YOU TOMORROW avs 8
logo


MyDNS.pro GeoIPDNS professional DNS hosting

Affordable VPN service Affordable DNS hosting, GeoDNS, Managed DNS Torrentz.to Torrentz.sx Torrentz.ms Torrents.sx