HighSpeed downloads:
Added TitleSpeed
27-08-2015IN.TIME.2011.R5.DVDRIP.XVID.CLEAR.AC3.5.1.HQ.HIVE-CM82016 Kb/s
21-08-2015In.Time.2011.R5.DVDRip.XVID.Clear.AC3.5.1.HQ.Hive-CM8.rar1003 Kb/s
23-08-2015[COMPLETE]In.Time.2011.R5.DVDRip.XVID.Clear.AC3.5.1.HQ.Hive-CM8.zip1114 Kb/s
22-08-2015[FULL RELEASE]In.Time.2011.R5.DVDRip.XVID.Clear.AC3.5.1.HQ.Hive-CM81014 Kb/s
25-08-2015[FULL]In.Time.2011.R5.DVDRip.XVID.Clear.AC3.5.1.HQ.Hive-CM81656 Kb/s
22-08-2015[HIGH SPEED]In.Time.2011.R5.DVDRip.XVID.Clear.AC3.5.1.HQ.Hive-CM81318 Kb/s
26-08-2015[TRUSTED]In.Time.2011.R5.DVDRip.XVID.Clear.AC3.5.1.HQ.Hive-CM81309 Kb/s
  Added: 03 Dec 2011 23:37:42
  Checked: 26 Apr 2012 07:32:45
  Tracker(s): http://tracker.thepiratebay.org/announce
udp://tracker.openbittorrent.com:80
udp://tracker.ccc.de:80
udp://tracker.publicbt.com:80
http://tracker.torrentbay.to:6969/announce
  Hash: 657D1B68B44AB1FE3C0BAAA5D642B43401E028FE
  File(s): In.Time.2011.R5.DVDRip.XVID.Clear.AC3.5.1.HQ.Hive-CM8.avi - 1723170816
In.Time.2011.R5.DVDRip.XVID.Clear.AC3.5.1.HQ.Hive-CM8.nfo - 5571
sample.avi - 37107712
Speed.cd read me .txt - 47
www.Speed.Cd.txt - 47
  Description:
- 
http://www.Speed.Cd      fast  and The Hottest Private Tracker on the net
   signup is open now
Please Seed back to make the speed Faster   
------------------nfo--------------------------
-[IMG]http://img171.imageshack.us/img171/3493/justintimberlakeintime1.jpg[/IMG]
[color=blue][size=4][b]In.Time.2011.R5.DVDRip.XVID.Clear.AC3.5.1.HQ.Hive-CM8[/b][/size][/color]
[b]Thx Hive
CM8 Doing It Right The First Time :D
  Cleared line  
Sources:
Video: Russian DVD-9
Vremya.2011.DVD9
Audio: Mistere Proper R5 Line
thx
Info:
Last 3 days i had 12h workshifts each - some of us have to work in real life8 
will try to get you the missed movies asap.
But now to this Movie. 
Encode:
There are already loads of versions around, i am sure you have collected at least 3 versions
already, and you are not satisfied with any of it for sure.
This is the version you shouldnt miss.
There is either the hollow line that sounds like a mic or the proper line, which has a buzz like
crazy. 
But that is the better audio to begin with, removing the buzz was very easy, just took me couple
mins. 
what took ages was that other rumbling sounding noise in the background which was noticeable after
the buzz was gone, that was the only thing standing in the way of a great line.
Removing that took me more than 8h.
Needed 15 steps in restoration,i didnt want to touch the voices, so i had to be careful.
that background noise is still very slightly there, sounds as perfect now as possible, entered that
final audio back into the russian 5.1 track and it was ready to go.
To the Video: 
the dvd was very good, just the typical r5 cleaning was needed.
sharpness,rgb,brightness and denoise.
got very nice in the end.
Quality approved
check extra long sample :P
enjoy
Video: 720x304 @bitrate 1800 2pass
Audio: English AC3 5.1 @384
Sample: yes extra long included[/b]
[url]http://www.imdb.com/title/tt1637688/[/url]
General
Complete name                  : In.Time.2011.R5.DVDRip.XVID.Clear.AC3.5.1.HQ.Hive-CM8.avi
Format                         : AVI
Format/Info                    : Audio Video Interleave
File size                      : 1.60 GiB
Duration                       : 1h 44mn
Overall bit rate               : 2 193 Kbps
Writing application            : Nandub v1.0rc2
Writing library                : Nandub build 1853/release
Video
ID                             : 0
Format                         : MPEG-4 Visual
Format profile                 : Advanced Simple@L5
Format settings, BVOP          : 2
Format settings, QPel          : Yes
Format settings, GMC           : No warppoints
Format settings, Matrix        : Default  H.263 
Muxing mode                    : Packed bitstream
Codec ID                       : XVID
Codec ID/Hint                  : XviD
Duration                       : 1h 44mn
Bit rate                       : 1 800 Kbps
Width                          : 720 pixels
Height                         : 304 pixels
Display aspect ratio           : 2.35:1
Frame rate                     : 25.000 fps
Color space                    : YUV
Chroma subsampling             : 4:2:0
Bit depth                      : 8 bits
Scan type                      : Progressive
Compression mode               : Lossy
Bits/ Pixel Frame              : 0.329
Stream size                    : 1.32 GiB  82  
Writing library                : XviD 1.2.1  UTC 2008-12-04 
Audio
ID                             : 1
Format                         : AC-3
Format/Info                    : Audio Coding 3
Mode extension                 : CM  complete main 
Codec ID                       : 2000
Duration                       : 1h 44mn
Bit rate mode                  : Constant
Bit rate                       : 384 Kbps
Channel s                      : 6 channels
Channel positions              : Front: L C R, Side: L R, LFE
Sampling rate                  : 48.0 KHz
Bit depth                      : 16 bits
Compression mode               : Lossy
Stream size                    : 288 MiB  18  
Alignment                      : Split accross interleaves
Interleave, duration           : 40 ms  1.00 video frame 
Interleave, preload duration   : 500 ms
Plot:
In the not-too-distant future the aging gene has been switched off. To avoid overpopulation, 
time has become the currency and the way people pay for luxuries and necessities. 
The rich can live forever, while the rest try to negotiate for their immortality. 
A poor young man who comes into a fortune of time, though too late to help his mother from dying. 
He ends up on the run from a police force known as   39;time keepers  39;. 
Cast:
Cillian Murphy ...  Raymond Leon
Justin Timberlake ...  Will Salas
Amanda Seyfried ...  Sylvia Weis
Shyloh Oostwald ...  Maya
[img]http://img198.imageshack.us/img198/9631/50334230.png[/img]
[img]http://img32.imageshack.us/img32/9980/inin.png[/img]
[img]http://img85.imageshack.us/img85/7980/ininin.png[/img]
[img]http://img838.imageshack.us/img838/2555/inininiiinnniniinn.png[/img]
[img]http://img542.imageshack.us/img542/7382/inininiinnin.png[/img]
[img]http://img850.imageshack.us/img850/6634/inininiinniniinn.png[/img]
[img]http://img845.imageshack.us/img845/9726/inininiinninin.png[/img]
[img]http://img842.imageshack.us/img842/5731/inininin.png[/img]
Greetz
ViSiON,SPK,SiC,SANTi,3LT0N,FUSiON,YanKeeS,MAGNET,THC,T0XiC,LKRG,Feel-Free,FLAWL3SS,
WBZ,ZMG,BHRG,NOVA,D2U,Vik,Rapeseed,SAFC,goldadvance,MEMORY100,KaN1vE,Unevano,Pinnz,Wayne
Mr Hive,and most P2P groups
Great Work Guys :D
LOOKING FOR ANYTHING YOU WANT TO LOOK AND SOUND BETTER
CM8@hushmail.com  
  Similar torrents:Message.In.A.Bottle.1999.DVDRip.XVID.AC3-GREVEN.torrent
Ultimate Avengers 2 - Rise of the Panther - DVDRip AC3 5.1 XViD.torrent
Fighter in The Wind 2004 DVDRip XviD GaMo.torrent
Studio 60 on the Sunset Strip S01E04 HR HDTV AC3 5 1 XviD-MiNT [eztv].torrent
Smith.S01E02.HR.HDTV.AC3.5.1.XviD-CTU.torrent
Prison.Break.S02E06.HR.HDTV.AC3.5.1.XviD-CTU.torrent
CSI S07E01 HR HDTV AC3 5.1 XviD-CTU.torrent
Prison.Break.S02E04.HR.HDTV.AC3.5.1.XviD-NBS.torrent
McLeods Daughters S06 E19 WS HR HDTV AC3 5 1 xvid-BMan2 avi.torrent
Iron Maiden - Rock in Rio DVD-Rip AC3 5 1.torrent
Alias.S05E13.HR.HDTV.AC3.5.1.XviD.torrent

Free images hosting for your posts




 

Recent searches:
step up 2006 ANASTACIA I M OUTTA LOVE Jillian Janson oded davidoff brivido caldo ASAP ROCKY LONG LIVE ASAP gloryhole initiations 16 Shes funny that way notte scheciap 2015 arrow seizoen 3 nl subs EVIL ANGEL XXX natural born pissers jurassic world ita vasco HARDCORE Le meraviglie ava addams short fuse notte defiance fury ita thestylist wordpress banana burne notice ita notte Hitler (1997) step up 2006 720 Ligabue Non ho che te photoshop cs7 crack
logo


MyDNS.pro GeoIPDNS professional DNS hosting

Affordable VPN service Affordable DNS hosting, GeoDNS, Managed DNS Torrentz.to