I'm just loving these guys !

HighSpeed downloads:
Added TitleSpeed
16-04-2014THE.HUNGER.GAMES.(2012).DVDSRC.AC3.CLEAN1681 Kb/s
16-04-2014The.Hunger.Games.(2012).DVDSRC.AC3.CLEAN.rar1203 Kb/s
13-04-2014[COMPLETE]The.Hunger.Games.(2012).DVDSRC.AC3.CLEAN.zip1261 Kb/s
18-04-2014[FULL RELEASE]The.Hunger.Games.(2012).DVDSRC.AC3.CLEAN1244 Kb/s
10-04-2014[FULL]The.Hunger.Games.(2012).DVDSRC.AC3.CLEAN1029 Kb/s
13-04-2014[HIGH SPEED]The.Hunger.Games.(2012).DVDSRC.AC3.CLEAN1340 Kb/s
11-04-2014[TRUSTED]The.Hunger.Games.(2012).DVDSRC.AC3.CLEAN1123 Kb/s
  Added: 27 Mar 2012 21:54:29
  Checked: 01 Apr 2012 11:52:38
  Tracker(s): http://tracker.thepiratebay.org/announce
udp://tracker.openbittorrent.com:80
udp://tracker.ccc.de:80
udp://tracker.istole.it:80
udp://tracker.publicbt.com:80
udp://tracker.novalayer.org:6969/announce
http://tracker.ex.ua/announce
http://ipv4.tracker.harry.lu/announce
http://tracker.pow7.com/announce
udp://tracker.1337x.org:80/announce
http://tracker.torrentbay.to:6969/announce
http://fr33dom.h33t.com:3310/announce
http://exodus.desync.com:6969/announce
  Hash: 7C492A0BE56352D62AB5CBF3A906F4FCA38A4C23
  File(s): The Hunger Games (2012) DVDSRC.AC3.PAEX.part01.rar - 99000000
The Hunger Games (2012) DVDSRC.AC3.PAEX.part02.rar - 99000000
The Hunger Games (2012) DVDSRC.AC3.PAEX.part03.rar - 99000000
The Hunger Games (2012) DVDSRC.AC3.PAEX.part04.rar - 99000000
The Hunger Games (2012) DVDSRC.AC3.PAEX.part05.rar - 99000000
The Hunger Games (2012) DVDSRC.AC3.PAEX.part06.rar - 99000000
The Hunger Games (2012) DVDSRC.AC3.PAEX.part07.rar - 99000000
The Hunger Games (2012) DVDSRC.AC3.PAEX.part08.rar - 99000000
The Hunger Games (2012) DVDSRC.AC3.PAEX.part09.rar - 47111349
  Description:
IMDb: http://www.imdb.com/title/tt1392170/
------------------------------------------
The Hunger Games  2012  DVDSRC.AC3.CLEAN
----------------------------------------------
Plot:
----
Set in a future where the Capitol selects a boy and girl from 
the twelve districts to fight to the death on live television, 
Katniss Everdeen volunteers to take her younger sister  39;s place 
for the latest match.
--------------------
Screenshots:
-----------
http://imageshack.us/photo/my-images/201/81403308.jpg/ 
http://imageshack.us/photo/my-images/193/10684415.jpg/ 
http://imageshack.us/photo/my-images/28/17490449.jpg/ 
http://imageshack.us/photo/my-images/38/90669641.jpg/ 
http://imageshack.us/photo/my-images/856/92629209.jpg/ 
http://imageshack.us/photo/my-images/69/85389923.jpg/ 
http://imageshack.us/photo/my-images/685/67379728.jpg/ 
http://imageshack.us/photo/my-images/11/48038335.jpg/ 
http://imageshack.us/photo/my-images/689/20972444.jpg/ 
http://imageshack.us/photo/my-images/692/38796917.jpg/
Details:
-------
Video
ID                               : 0
Format                           : MPEG-4 Visual
Format profile                   : AdvancedSimple@L5
Format settings, BVOP            : Yes
Format settings, QPel            : No
Format settings, GMC             : No warppoints
Format settings, Matrix          : Custom
Codec ID                         : XVID
Codec ID/Hint                    : XviD
Duration                         : 2h 22mn
Bit rate                         : 1 625 Kbps
Width                            : 720 pixels
Height                           : 304 pixels
Display aspect ratio             : 2.35:1
Frame rate                       : 23.976 fps
Resolution                       : 24 bits
Colorimetry                      : 4:2:0
Scan type                        : Progressive
Bits/ Pixel Frame                : 0.310
Stream size                      : 691 MiB  99  
Writing library                  : XviD 58
Audio
ID                               : 1
Format                           : AC-3
Format/Info                      : Audio Coding 3
Codec ID                         : 2000
Duration                         : 2h 22mn
Bit rate mode                    : Constant
Bit rate                         : 192 Kbps
Channel s                        : 2 channels
Channel positions                : L R
Sampling rate                    : 48.0 KHz
Stream size                      : 147 MiB  11  
Alignment                        : Aligned on interleaves
Interleave, duration             : 64 ms  1.53 video frames 
Interleave, preload duration     : 192 ms
-----------------------------------------
  Similar torrents:

Free images hosting for your posts




 

Recent searches:
Virtual Dj Home Free american hustle Da Vincis Demons unluckylady The Thornbirds soundtrack My Wife Caught Me Assfucking Her Mother BARBRA STREISAND BARRY GIBB GUILTY teresa orlowski magic mike ita brus wilis Grimm S03E16 HDTV x264 LOL game of thrones BOMBAY BICYCLE CLUB EASIER paulina BASEMENT JAXX GOOD LUCK god hand ps2 road trip ita mario merola pollyword DiskInternals Uneraser crack sony vegas 9 Italo Disco Hits gkr xxx anale la desolazione di smaug dfdfab 9 cuelux les nouveaux chiens de garde BOMBAY BICYCLE CLUB SO LONG SEE YOU TOMORROW avs 8
logo


MyDNS.pro GeoIPDNS professional DNS hosting

Affordable VPN service Affordable DNS hosting, GeoDNS, Managed DNS Torrentz.to Torrentz.sx Torrentz.ms Torrents.sx