I'm just loving these guys !

HighSpeed downloads:
Added TitleSpeed
20-10-2014THE.HUNGER.GAMES.(2012).DVDSRC.AC3.CLEAN2070 Kb/s
14-10-2014The.Hunger.Games.(2012).DVDSRC.AC3.CLEAN.rar1177 Kb/s
14-10-2014[COMPLETE]The.Hunger.Games.(2012).DVDSRC.AC3.CLEAN.zip2227 Kb/s
18-10-2014[FULL RELEASE]The.Hunger.Games.(2012).DVDSRC.AC3.CLEAN1506 Kb/s
17-10-2014[FULL]The.Hunger.Games.(2012).DVDSRC.AC3.CLEAN1370 Kb/s
15-10-2014[HIGH SPEED]The.Hunger.Games.(2012).DVDSRC.AC3.CLEAN2320 Kb/s
14-10-2014[TRUSTED]The.Hunger.Games.(2012).DVDSRC.AC3.CLEAN2052 Kb/s
  Added: 27 Mar 2012 21:54:29
  Checked: 01 Apr 2012 11:52:38
  Tracker(s): http://tracker.thepiratebay.org/announce
udp://tracker.openbittorrent.com:80
udp://tracker.ccc.de:80
udp://tracker.istole.it:80
udp://tracker.publicbt.com:80
udp://tracker.novalayer.org:6969/announce
http://tracker.ex.ua/announce
http://ipv4.tracker.harry.lu/announce
http://tracker.pow7.com/announce
udp://tracker.1337x.org:80/announce
http://tracker.torrentbay.to:6969/announce
http://fr33dom.h33t.com:3310/announce
http://exodus.desync.com:6969/announce
  Hash: 7C492A0BE56352D62AB5CBF3A906F4FCA38A4C23
  File(s): The Hunger Games (2012) DVDSRC.AC3.PAEX.part01.rar - 99000000
The Hunger Games (2012) DVDSRC.AC3.PAEX.part02.rar - 99000000
The Hunger Games (2012) DVDSRC.AC3.PAEX.part03.rar - 99000000
The Hunger Games (2012) DVDSRC.AC3.PAEX.part04.rar - 99000000
The Hunger Games (2012) DVDSRC.AC3.PAEX.part05.rar - 99000000
The Hunger Games (2012) DVDSRC.AC3.PAEX.part06.rar - 99000000
The Hunger Games (2012) DVDSRC.AC3.PAEX.part07.rar - 99000000
The Hunger Games (2012) DVDSRC.AC3.PAEX.part08.rar - 99000000
The Hunger Games (2012) DVDSRC.AC3.PAEX.part09.rar - 47111349
  Description:
IMDb: http://www.imdb.com/title/tt1392170/
------------------------------------------
The Hunger Games  2012  DVDSRC.AC3.CLEAN
----------------------------------------------
Plot:
----
Set in a future where the Capitol selects a boy and girl from 
the twelve districts to fight to the death on live television, 
Katniss Everdeen volunteers to take her younger sister  39;s place 
for the latest match.
--------------------
Screenshots:
-----------
http://imageshack.us/photo/my-images/201/81403308.jpg/ 
http://imageshack.us/photo/my-images/193/10684415.jpg/ 
http://imageshack.us/photo/my-images/28/17490449.jpg/ 
http://imageshack.us/photo/my-images/38/90669641.jpg/ 
http://imageshack.us/photo/my-images/856/92629209.jpg/ 
http://imageshack.us/photo/my-images/69/85389923.jpg/ 
http://imageshack.us/photo/my-images/685/67379728.jpg/ 
http://imageshack.us/photo/my-images/11/48038335.jpg/ 
http://imageshack.us/photo/my-images/689/20972444.jpg/ 
http://imageshack.us/photo/my-images/692/38796917.jpg/
Details:
-------
Video
ID                               : 0
Format                           : MPEG-4 Visual
Format profile                   : AdvancedSimple@L5
Format settings, BVOP            : Yes
Format settings, QPel            : No
Format settings, GMC             : No warppoints
Format settings, Matrix          : Custom
Codec ID                         : XVID
Codec ID/Hint                    : XviD
Duration                         : 2h 22mn
Bit rate                         : 1 625 Kbps
Width                            : 720 pixels
Height                           : 304 pixels
Display aspect ratio             : 2.35:1
Frame rate                       : 23.976 fps
Resolution                       : 24 bits
Colorimetry                      : 4:2:0
Scan type                        : Progressive
Bits/ Pixel Frame                : 0.310
Stream size                      : 691 MiB  99  
Writing library                  : XviD 58
Audio
ID                               : 1
Format                           : AC-3
Format/Info                      : Audio Coding 3
Codec ID                         : 2000
Duration                         : 2h 22mn
Bit rate mode                    : Constant
Bit rate                         : 192 Kbps
Channel s                        : 2 channels
Channel positions                : L R
Sampling rate                    : 48.0 KHz
Stream size                      : 147 MiB  11  
Alignment                        : Aligned on interleaves
Interleave, duration             : 64 ms  1.53 video frames 
Interleave, preload duration     : 192 ms
-----------------------------------------
  Similar torrents:Suzanne Collins - The Hunger Games.torrent
The Hunger Games Audio [demonoid].torrent
Asterix.At.The.Olympic.Games.2008.DVDRip.AC3.XviD.V.O.Sub.Spanis.torrent
2012 [The Movie - 2009] DVDRip XviD AC3 (English)-LW-team.torrent
HDTV History Channel Decoding The Past Doomsday 2012 The End Of Days x264 720p AC3-[rarbg.com].torrent
The Game-L.A.X.-2008-[CLEAN-VERSION][EAC-RIP].rar.torrent
Masha.And.The.Bear.2010.DVDRip.XviD.AC3-ViSiON.torrent
The Road 2009 BRRip XviD AC3-SANTi-[teamfx.org].torrent
Harry.Potter.and.The.Half-Blood.Prince .2009.AC3.SWESUB.DVDRip.X.torrent
The Pacific Part Seven 1080i AC3 MPEG2-BitMeTV.torrent
The Road 2009 BRRip XviD AC3-SANTi.torrent

Free images hosting for your posts




 

Recent searches:
nuvi mindhunters los lakers parental knife dvd polà una vita da formica pta bluray disney miriam gonzales kat prototype pna map proFile juliette buttman magazine mazinga ita dvd power2GO ihsahn cock worship teen s t a l k e r kylie minogue avi diamond 13 2009 hitman blood pc jenna mp4 queer as hit mania estate dublado blu ray bob dylan rare disney dvd ita
logo


MyDNS.pro GeoIPDNS professional DNS hosting

Affordable VPN service Affordable DNS hosting, GeoDNS, Managed DNS Torrentz.to Torrentz.sx Torrentz.ms Torrents.sx Torrents.si Torrents.dj