HighSpeed downloads:
Added TitleSpeed
30-03-2017THE.HUNGER.GAMES.2012.TS.XVID.DTRG1922 Kb/s
21-03-2017The.Hunger.Games.2012.TS.XViD.DTRG.rar2287 Kb/s
27-03-2017[COMPLETE]The.Hunger.Games.2012.TS.XViD.DTRG.zip2249 Kb/s
27-03-2017[FULL RELEASE]The.Hunger.Games.2012.TS.XViD.DTRG1298 Kb/s
24-03-2017[FULL]The.Hunger.Games.2012.TS.XViD.DTRG2215 Kb/s
22-03-2017[HIGH SPEED]The.Hunger.Games.2012.TS.XViD.DTRG1932 Kb/s
30-03-2017[TRUSTED]The.Hunger.Games.2012.TS.XViD.DTRG2064 Kb/s
  Added: 28 Mar 2012 17:34:45
  Checked: 01 Apr 2012 11:51:44
  Tracker(s): udp://tracker.ccc.de:80
udp://tracker.istole.it:80
udp://thetracker.org:80/announce
http://tracker.bittorrent.am/announce
udp://tracker.publicbt.com:80/announce
udp://tracker.openbittorrent.com:80/announce
http://inferno.demonoid.me:3418/announce
  Hash: 19593E48FD8552E338F2A2BF40C70002A4F13379
  File(s): Torrent downloaded from Demonoid.me.txt - 46
Sample.avi - 8110134
The.Hunger.Games.2012.TS.XViD.DTRG.avi - 1487958016
  Description:
Format : AVI
 Format/Info : Audio Video Interleave
 File size : 1.39 GiB
 Duration : 2h 7mn
 Overall bit rate : 1 556 Kbps
 Writing application : VirtualDubMod 1.5.10.2  build 2540/release 
 Writing library : VirtualDubMod build 2540/release
 Video
 ID : 0
 Format : MPEG-4 Visual
 Format profile : Advanced Simple@L5
 Format settings, BVOP : 2
 Format settings, QPel : No
 Format settings, GMC : No warppoints
 Format settings, Matrix : Default  H.263 
 Muxing mode : Packed bitstream
 Codec ID : XVID
 Codec ID/Hint : XviD
 Duration : 2h 7mn
 Bit rate : 1 418 Kbps
 Width : 642 pixels
 Height : 252 pixels
 Display aspect ratio : 2.548
 Frame rate : 25.000 fps
 Color space : YUV
 Chroma subsampling : 4:2:0
 Bit depth : 8 bits
 Scan type : Progressive
 Compression mode : Lossy
 Bits/ Pixel Frame  : 0.351
 Stream size : 1.26 GiB  91  
 Writing library : XviD 64
 Audio
 ID : 1
 Format : MPEG Audio
 Format version : Version 1
 Format profile : Layer 3
 Codec ID : 55
 Codec ID/Hint : MP3
 Duration : 2h 7mn
 Bit rate mode : Constant
 Bit rate : 128 Kbps
 Channel s  : 2 channels
 Sampling rate : 48.0 KHz
 Compression mode : Lossy
 Stream size : 117 MiB  8  
 Alignment : Split accross interleaves
 Interleave, duration : 40 ms  1.00 video frame 
 Interleave, preload duration : 500 ms

  http://www.imdb.com/title/tt1392170/
 Ratings: 8.1/10 from 13,331 users Metascore: 68/100 
 Reviews: 327 user   162 critic   43 from Metacritic.com
 Set in a future where the Capitol selects a boy and girl from the twelve districts to fight to the
death on live television, Katniss Everdeen volunteers to take her younger sister  39;s place for the
latest match.
 Director:
 Gary Ross
 Writers:
 Gary Ross  screenplay , Suzanne Collins  screenplay , and 2 more credits       
 Stars:
 Jennifer Lawrence, Josh Hutcherson and Liam Hemsworth  
  Similar torrents:The Express The Ernie Davis Story TS XviD - STG.torrent
The Incredible Hulk 2008 TS XVID - Nick - Rapidshare txt [mininova](2) torrent.torrent
The Mummy Tomb of the Dragon Emperor PROPER TS XviD COALiTiON--cgaurav--.torrent
The Mummy Tomb of the Dragon Emperor PROPER TS XviD-COALiTiON WWW.CEASERS-PALACE.INFO.torrent
Batman The Dark Knight 2008 TS XVID - STG.torrent
The.Game.Plan.PROPER.TS.XViD-CAMERA.torrent
The Seeker The Dark Is Rising TS XViD-[www.seedmore.org].torrent
The Seeker The Dark Is Rising.TS.XViD-20th-makispap.torrent
The Seeker The Dark Is Rising TS XViD-CAMERA[www pythons-lair com].torrent
Fantastic Four Rise Of The Silver Surfer INTERNAL TS XviD mVs.torrent
Fantastic 4 Rise of the Silver Surfer iNTERNAL TS XViD 20th.torrent

Free images hosting for your posts



logo


MyDNS.pro GeoIPDNS professional DNS hosting
Torrentz.to