HighSpeed downloads:
Added TitleSpeed
21-09-2016LE.BASSIN.DE.JW.AKA.THE.HIPS.OF.JW.1997.DVDRIP.X264-HANDJOB.MKV2486 Kb/s
23-09-2016Le.Bassin.de.JW.AKA.The.Hips.of.JW.1997.DVDRip.X264-HANDJOB.mkv.rar1923 Kb/s
23-09-2016[COMPLETE]Le.Bassin.de.JW.AKA.The.Hips.of.JW.1997.DVDRip.X264-HANDJOB.mkv.zip2320 Kb/s
22-09-2016[FULL RELEASE]Le.Bassin.de.JW.AKA.The.Hips.of.JW.1997.DVDRip.X264-HANDJOB.mkv1443 Kb/s
28-09-2016[FULL]Le.Bassin.de.JW.AKA.The.Hips.of.JW.1997.DVDRip.X264-HANDJOB.mkv1716 Kb/s
21-09-2016[HIGH SPEED]Le.Bassin.de.JW.AKA.The.Hips.of.JW.1997.DVDRip.X264-HANDJOB.mkv1538 Kb/s
27-09-2016[TRUSTED]Le.Bassin.de.JW.AKA.The.Hips.of.JW.1997.DVDRip.X264-HANDJOB.mkv2133 Kb/s
  Added: 27 Jun 2012 07:14:04
  Checked: Not yet
  Tracker(s): http://tracker.thepiratebay.org/announce
udp://tracker.openbittorrent.com:80
udp://tracker.istole.it:80
udp://tracker.ccc.de:80
udp://tracker.publicbt.com:80
http://10.rarbg.com/announce
http://tracker.blazing.de:6969/announce
http://exodus.desync.com:6969/announce
http://tracker.ilibr.org:6969/announce
http://pow7.com/announce
  Hash: 38522DC039C1598CEE4A5BC9B788D0A78C9E8E01
  File(s): Le.Bassin.de.JW.AKA.The.Hips.of.JW.1997.DVDRip.X264-HANDJOB.mkv - 2160293885
  Description:
Two actors performing in Strindberg  39;s  Inferno  as God and Lucifer, find themselves competing in
real life as well. One of them, Henrique, has spiritual obsession with John Wayne and his way of
walking. He and de Dieu, his fellow actor who plays Lucifer and also directs the Strindberg play,
engage in a philosophical and spiritual tug-of-war, especially when they meet an author named God,
who has plans for another drama to feature both actors. Written by Jim Beaver 
Video
ID : 1
Format : AVC
Format/Info : Advanced Video Codec
Format profile : High@L3.1
Format settings, CABAC : Yes
Format settings, ReFrames : 12 frames
Codec ID : V MPEG4/ISO/AVC
Duration : 2h 18mn
Bit rate : 1 813 Kbps
Width : 650 pixels
Height : 574 pixels
Display aspect ratio : 1.610
Original display aspect ratio : 1.611
Frame rate : 25.000 fps
Color space : YUV
Chroma subsampling : 4:2:0
Bit depth : 8 bits
Scan type : Progressive
Bits/ Pixel Frame  : 0.194
Stream size : 1.76 GiB  87  
Writing library : x264 core 120
Encoding settings : cabac=1 / ref=12 / deblock=1:-2:-2 / analyse=0x3:0x133 / me=umh / subme=11 /
psy=1 / psy rd=1.00:0.05 / mixed ref=1 / me range=32 / chroma me=1 / trellis=2 / 8x8dct=1 / cqm=0 /
deadzone=21,11 / fast pskip=0 / chroma qp offset=-3 / threads=4 / sliced threads=0 / nr=0 /
decimate=1 / interlaced=0 / bluray compat=0 / constrained intra=0 / bframes=9 / b pyramid=2 / b
adapt=2 / b bias=0 / direct=3 / weightb=1 / open gop=0 / weightp=2 / keyint=250 / keyint min=25 /
scenecut=40 / intra refresh=0 / rc lookahead=60 / rc=crf / mbtree=1 / crf=15.5 / qcomp=0.60 /
qpmin=3 / qpmax=69 / qpstep=4 / ip ratio=1.40 / aq=2:1.00
Language : English
Default : Yes
Forced : No
Color primaries : BT.601-6 525, BT.1358 525, BT.1700 NTSC, SMPTE 170M
Transfer characteristics : BT.709-5, BT.1361
Matrix coefficients : BT.601-6 525, BT.1358 525, BT.1700 NTSC, SMPTE 170M
Audio
ID : 2
Format : AC-3
Format/Info : Audio Coding 3
Mode extension : CM  complete main 
Codec ID : A AC3
Duration : 2h 18mn
Bit rate mode : Constant
Bit rate : 224 Kbps
Channel s  : 2 channels
Channel positions : Front: L R
Sampling rate : 48.0 KHz
Bit depth : 16 bits
Compression mode : Lossy
Stream size : 222 MiB  11  
Default : Yes
Forced : No
SUBS: Vobsub - English, French, Spanish, Portuguese
My rip.  
  Similar torrents:Lo Mejor de Laura Pausini (The Best of Laura Pausini) Volver Junto a Ti [ENHANCED].torrent
El nombre de la rosa - The Name Of The Rose.torrent
The Guru AKA The Guru of Sex.torrent
Neogeo Battle Coliseum Super Tag Challange (KOFZ060418 aka The King of Fighters Zillion) PC-GAME WIN.torrent
De La Soul - The Best Of.torrent
El Dia De la Bestia (The Day of the Beast) - Original Soundtrack.torrent
The.King.of.Queens.S05.DVDRip.XviD-SAiNTS.torrent
The Lives Of Others.(2006).DVDRip-DanAv.torrent
The.Lives.Of.Others.2006.DVDRip.XviD-TLF.torrent
The.Best.Of.Gauge.XXX.DVDRip.DivX-Pr0nStarS.torrent
In The Mouth Of Madness 1995 DVDRip XviD.torrent

Free images hosting for your posts




logo


MyDNS.pro GeoIPDNS professional DNS hosting

Affordable VPN service Affordable DNS hosting, GeoDNS, Managed DNS Torrentz.to