I'm just loving these guys !

HighSpeed downloads:
Added TitleSpeed
21-11-2014OASIS.FULLSHOW.CR.1128.WMV1579 Kb/s
13-11-2014Oasis.fullshow.cr.1128.wmv.rar1192 Kb/s
22-11-2014[COMPLETE]Oasis.fullshow.cr.1128.wmv.zip2379 Kb/s
22-11-2014[FULL RELEASE]Oasis.fullshow.cr.1128.wmv1090 Kb/s
15-11-2014[FULL]Oasis.fullshow.cr.1128.wmv1982 Kb/s
21-11-2014[HIGH SPEED]Oasis.fullshow.cr.1128.wmv2421 Kb/s
20-11-2014[TRUSTED]Oasis.fullshow.cr.1128.wmv1103 Kb/s
  Added: 27 Jun 2012 07:14:04
  Checked: Not yet
  Tracker(s): http://tracker.thepiratebay.org/announce
udp://tracker.openbittorrent.com:80
udp://tracker.publicbt.com:80
udp://tracker.istole.it:80
udp://tracker.ccc.de:80
udp://inferno.demonoid.com:3391
http://tracker.dvdquorum.es:2710/announce
http://www.mazetorrents.net/announce.php
http://9.rarbg.com:2710/announce
http://special.pwtorrents.net/announce.php
http://photodiode.mine.nu:6969/announce
http://desasterweb.hopto.org/announce.php
http://tracker.ilibr.org:6969/announce
http://bt.edwardk.info:6969/announce
http://lyjak.waw.pl/announce.php
http://www.bt-pt.net/announce.php
http://www.eddie4.nl:6969/announce
http://tracker.mightynova.com:4315/announce
http://www.deviloid.net:6969/announce
http://www.pythons-lair.com/announce.php
http://tracker.bittorrent.am/announce
http://deviloid.net:6969/announce
http://shadowshq.yi.org:6969/announce
http://www.the-romanempire.com/announce.php
http://www.kludd.com/announce.php
http://mm.moonman.ws/announce.php
http://www.h33t.com:3310/announce
http://zakey.kicks-ass.net:6969/announce
http://fdisk.projektas.in/announce.php
http://www.chinadocumentaries.com/announce.php
http://homemadeporntorrents.com/announce.php
http://www.spirit-tracker.org/announce.php
http://www.grabthe.info/announce.php
http://www.hungercity.org:2710/announce
http://www.oggfrog.com:6969/announce
http://www.swetorrents.org/announce.php
http://www.dynamic-universe.net/announce.php
http://pirates-united.info:6969/announce
http://torrentheaven.dyn.pl/announce.php
http://cw.enlightning.de:6969/announce
http://www.baltracker.net:3390/announce
http://anvilofsound.com/announce
http://www.hdsource.biz/announce.php
http://islamictorrents.net/announce.php
http://xtremewrestlingtorrents.net/announce.php
http://www.fuckingtorrent.com/fenix/announce.php
http://www.midnight-scene.com/announce.php
http://tracker.generationtrance.com/announce.php
http://tracker.tbkresources.org/announce.php
http://www.fsh.ro/announce.php
http://360.kicks-ass.org/announce.php
http://bit-pit.com/announce.php
http://www.seekmybits.com/announce.php
http://dslrchat.com/n3torrent/announce.php
http://t.alein.org/announce.php
http://bt.go2id.net/announce.php
http://tracker.aelitis.com:6969/announce
http://arcoiris.argonet.hu/announce.php
http://www.jungle-pirates.com/announce.php
http://www.net-vision.org/announce.php
http://zombtracker.the-zomb.com/announce.php
http://tracker.gotwoot.net:6968/announce
http://www.underground-gamer.com/announce.php
http://www.filemp3.org/announce.php
http://exodus.desync.com:6969/announce
http://www.tophos.org/announce.php
http://tracker.irc.su/announce
http://bithq.org/announce.php
http://destroy.kinghosting.cz/announce.php
http://www.seedzone.info/announce.php
http://www.quorks.com/announce.php
http://mullemeck.serveftp.org:7531/announce
http://wantedfiles.ro/announce.php
http://www.bitsoup.org/announce.php
http://www.filebits.org/announce.php
http://desidhamal.com:6883/announce
http://quorks.com/announce.php
http://tracker.xpear.de:6969/announce
http://www.mega-bits.com/announce.php
http://torrent.net13.ro/announce.php
http://10.rarbg.com/announce
http://tracker.mightynova.com/announce
  Hash: E4BA0805295746C73DEE90E3F562E35364482B05
  File(s): oasis_fullshow_cr_1128.wmv - 607324097
  Description:
Noel Gallagher and Gem of Oasis LIVE in a semi-acoustic performance from Le cabaret sauvage in
Paris, France November 28, 2006.
Format                                   : Windows Media
File size                                : 579 MiB
Duration                                 : 1h 8mn
Overall bit rate mode                    : Constant
Overall bit rate                         : 1 181 Kbps
Maximum Overall bit rate                 : 1 146 Kbps
Encoded date                             : UTC 2006-11-29 05:40:37.129
Video 
ID                                       : 4
Format                                   : VC-1
Format profile                           : MP@ML
Codec ID                                 : WMV3
Codec ID/Info                            : Windows Media Video 9
Codec ID/Hint                            : WMV3
Description of the codec                 : Windows Media Video 9
Duration                                 : 1h 8mn
Bit rate mode                            : Constant
Bit rate                                 : 595 Kbps
Width                                    : 424 pixels
Height                                   : 240 pixels
Display aspect ratio                     : 16:9
Frame rate                               : 29.970 fps
Bit depth                                : 8 bits
Scan type                                : Progressive
Compression mode                         : Lossy
Bits/ Pixel Frame                        : 0.195
Stream size                              : 292 MiB  50  
Audio
ID                                       : 1
Format                                   : WMA
Format version                           : Version 2
Codec ID                                 : 161
Codec ID/Info                            : Windows Media Audio
Description of the codec                 : Windows Media Audio 9.2 - 96 kbps, 
                                           44 kHz, stereo 1-pass CBR
Duration                                 : 1h 8mn
Bit rate mode                            : Constant
Bit rate                                 : 96.0 Kbps
Channel s                                : 2 channels
Sampling rate                            : 44.1 KHz
Bit depth                                : 16 bits
Stream size                              : 47.1 MiB  8  
  Similar torrents:Oasis at Ciudad de Mexico 31-03-06 madferforum net.torrent
Priya Rai - MILF Soup [Priyas Leak].wmv.torrent
Lanny Barbie - Gangbang Iv83.wmv.torrent
lisa ann DWP.wmv.torrent
veronica rayne CSTI.wmv.torrent
jenaveve jolie DWP.wmv.torrent
Japan - Vulva Contest.wmv.torrent
Huge dildo.wmv.torrent
Roma.1x08.Cesarione.ITA.ENG.AC3.Bigsur.[CR-Bt].torrent
Redhead.wmv.torrent
Grunya-2008-10-23-TeenSexMovs.wmv.torrent

Free images hosting for your posts




 

Recent searches:
nuvi mindhunters los lakers parental knife dvd polà una vita da formica pta bluray disney miriam gonzales kat prototype pna map proFile juliette buttman magazine mazinga ita dvd power2GO ihsahn cock worship teen s t a l k e r kylie minogue avi diamond 13 2009 hitman blood pc jenna mp4 queer as hit mania estate dublado blu ray bob dylan rare disney dvd ita
logo


MyDNS.pro GeoIPDNS professional DNS hosting

Affordable VPN service Affordable DNS hosting, GeoDNS, Managed DNS Torrentz.to Torrentz.sx Torrentz.ms Torrents.sx Torrents.si Torrents.dj