HighSpeed downloads:
Added TitleSpeed
19-03-2017ZUMBA---PAUSE-BY-PITBULL1366 Kb/s
18-03-2017Zumba---Pause-by-Pitbull.rar1567 Kb/s
17-03-2017[COMPLETE]Zumba---Pause-by-Pitbull.zip2065 Kb/s
18-03-2017[FULL RELEASE]Zumba---Pause-by-Pitbull1310 Kb/s
16-03-2017[FULL]Zumba---Pause-by-Pitbull1563 Kb/s
17-03-2017[HIGH SPEED]Zumba---Pause-by-Pitbull1757 Kb/s
20-03-2017[TRUSTED]Zumba---Pause-by-Pitbull1513 Kb/s
  Added: 05 Jul 2012 22:30:03
  Checked: Not yet
  Tracker(s): http://tracker.thepiratebay.org/announce
udp://tracker.openbittorrent.com:80
udp://tracker.ccc.de:80
udp://tracker.publicbt.com:80
http://tracker.bittorrent.am/announce
  Hash: 9C3BB381A90C2A04AE6B98ECBBAA6E2A8F98F23C
  File(s): Zumba- Pause by Pitbull.mp4 - 41941877
  Description:
Zumba Fitness, Pause by Pitbull 720P
General
Complete name                            : Zumba- Pause by Pitbull.mp4
Format                                   : MPEG-4
Format profile                           : Base Media / Version 2
Codec ID                                 : mp42
File size                                : 40.0 MiB
Duration                                 : 3mn 16s
Overall bit rate mode                    : Variable
Overall bit rate                         : 1 705 Kbps
Video
ID                                       : 1
Format                                   : AVC
Format/Info                              : Advanced Video Codec
Format profile                           : High@L3.1
Format settings, CABAC                   : Yes
Format settings, ReFrames                : 1 frame
Codec ID                                 : avc1
Codec ID/Info                            : Advanced Video Coding
Duration                                 : 3mn 16s
Bit rate                                 : 1 555 Kbps
Maximum bit rate                         : 3 329 Kbps
Width                                    : 1 280 pixels
Height                                   : 720 pixels
Display aspect ratio                     : 16:9
Frame rate mode                          : Variable
Frame rate                               : 23.976 fps
Minimum frame rate                       : 17.241 fps
Maximum frame rate                       : 24.390 fps
Color space                              : YUV
Chroma subsampling                       : 4:2:0
Bit depth                                : 8 bits
Scan type                                : Progressive
Bits/ Pixel Frame                        : 0.070
Stream size                              : 36.5 MiB  91  
Audio
ID                                       : 2
Format                                   : AAC
Format/Info                              : Advanced Audio Codec
Format profile                           : LC
Codec ID                                 : 40
Duration                                 : 3mn 16s
Bit rate mode                            : Variable
Bit rate                                 : 144 Kbps
Maximum bit rate                         : 232 Kbps
Channel s                                : 2 channels
Channel positions                        : Front: L R
Sampling rate                            : 44.1 KHz
Compression mode                         : Lossy
Stream size                              : 3.39 MiB  8  
  Similar torrents:I.Can.Do.Bad.All.By.Myself.720p.BluRay.x264-Felony.torrent
Nazareth-Razamanaz.Live.London.1985.by.SanuraxMedia.720p.mkv.torrent
One Piece 390 vostfr by mdL [720p] [H264 - AAC] .mp4.torrent
PITBULL I Know you want me 2009 by QUIM33 mkv 720p.torrent
Up in the Air (2009) 720p x264 by RiddlerA.torrent
Precious.Based.on.the.Novel.Push.by.Sapphire.BRRIP.MP4.x264.720p.torrent
Precious.Based.on.the.Novel.Push.by.Sapphire.2009.720p.BluRay.x2.torrent
AVRIL LAVIGNE 720p ALICE UNDERGROUND video by WricK a.k.a WRIJU.torrent
POETS OF THE FALL new 720p HD vids by WricK a.k.a WRIJU.torrent
Dead by sunrise - Crawl back in (Jimmey Kimmel Live) 720p.torrent
[JPU] Aki Sora [DVD Upscale 720p][AAC 2.0] uploaded by Sentinel.torrent

Free images hosting for your posts



logo


MyDNS.pro GeoIPDNS professional DNS hosting
Torrentz.to