HighSpeed downloads:
Added TitleSpeed
21-08-2016ZUMBA.-.PAUSE.BY.PITBULL.720P1286 Kb/s
23-08-2016Zumba.-.Pause.by.Pitbull.720P.rar1419 Kb/s
24-08-2016[COMPLETE]Zumba.-.Pause.by.Pitbull.720P.zip1077 Kb/s
25-08-2016[FULL RELEASE]Zumba.-.Pause.by.Pitbull.720P1825 Kb/s
26-08-2016[FULL]Zumba.-.Pause.by.Pitbull.720P2079 Kb/s
19-08-2016[HIGH SPEED]Zumba.-.Pause.by.Pitbull.720P2267 Kb/s
26-08-2016[TRUSTED]Zumba.-.Pause.by.Pitbull.720P2231 Kb/s
  Added: 05 Jul 2012 22:30:03
  Checked: Not yet
  Tracker(s): http://tracker.thepiratebay.org/announce
udp://tracker.openbittorrent.com:80
udp://tracker.ccc.de:80
udp://tracker.publicbt.com:80
  Hash: 9C3BB381A90C2A04AE6B98ECBBAA6E2A8F98F23C
  File(s): Zumba- Pause by Pitbull.mp4 - 41941877
  Description:
Zumba Fitness, Pause by Pitbull 720P
General
Complete name                            : Zumba- Pause by Pitbull.mp4
Format                                   : MPEG-4
Format profile                           : Base Media / Version 2
Codec ID                                 : mp42
File size                                : 40.0 MiB
Duration                                 : 3mn 16s
Overall bit rate mode                    : Variable
Overall bit rate                         : 1 705 Kbps
Video
ID                                       : 1
Format                                   : AVC
Format/Info                              : Advanced Video Codec
Format profile                           : High@L3.1
Format settings, CABAC                   : Yes
Format settings, ReFrames                : 1 frame
Codec ID                                 : avc1
Codec ID/Info                            : Advanced Video Coding
Duration                                 : 3mn 16s
Bit rate                                 : 1 555 Kbps
Maximum bit rate                         : 3 329 Kbps
Width                                    : 1 280 pixels
Height                                   : 720 pixels
Display aspect ratio                     : 16:9
Frame rate mode                          : Variable
Frame rate                               : 23.976 fps
Minimum frame rate                       : 17.241 fps
Maximum frame rate                       : 24.390 fps
Color space                              : YUV
Chroma subsampling                       : 4:2:0
Bit depth                                : 8 bits
Scan type                                : Progressive
Bits/ Pixel Frame                        : 0.070
Stream size                              : 36.5 MiB  91  
Audio
ID                                       : 2
Format                                   : AAC
Format/Info                              : Advanced Audio Codec
Format profile                           : LC
Codec ID                                 : 40
Duration                                 : 3mn 16s
Bit rate mode                            : Variable
Bit rate                                 : 144 Kbps
Maximum bit rate                         : 232 Kbps
Channel s                                : 2 channels
Channel positions                        : Front: L R
Sampling rate                            : 44.1 KHz
Compression mode                         : Lossy
Stream size                              : 3.39 MiB  8  
  Similar torrents:Nazareth-Razamanaz.Live.London.1985.by.SanuraxMedia.720p.mkv.torrent
One Piece 390 vostfr by mdL [720p] [H264 - AAC] .mp4.torrent
Cars.2006.720p.BluRay.Arabic-Dubbed.by.Sha3WaThA.torrent
Underworld Trilogy 720p BDRip[ResourceRG Boxset by Titan].torrent
BERNARD Au pole nord French wmv 720p by QUIM33.torrent
Pitbull - Sh*ttin On The Industry (Presented By DJ Noodles & DJ Buddha)-2009-MIXFIEND.torrent
FullMetal Alchemist Brotherhood 1-7 VOSTFR 720p by butz1906.torrent
Gone in 60 Seconds 2000 BDRip[A 720p Release by Titan].torrent
Eminem - 3AM Music Video HD 720p - By DanielDF.torrent
Eminem - 3AM Video HD 720p - By DanielDF mp4 torrent.torrent
Blazing Saddles 1974 BDRip[A 720p Release by Titan].torrent

Free images hosting for your posts




logo


MyDNS.pro GeoIPDNS professional DNS hosting

Affordable VPN service Affordable DNS hosting, GeoDNS, Managed DNS Torrentz.to