I'm just loving these guys !

HighSpeed downloads:
Added TitleSpeed
15-10-2014ZUMBA.-.PAUSE.BY.PITBULL.720P2212 Kb/s
19-10-2014Zumba.-.Pause.by.Pitbull.720P.rar1594 Kb/s
16-10-2014[COMPLETE]Zumba.-.Pause.by.Pitbull.720P.zip1356 Kb/s
18-10-2014[FULL RELEASE]Zumba.-.Pause.by.Pitbull.720P1332 Kb/s
18-10-2014[FULL]Zumba.-.Pause.by.Pitbull.720P2331 Kb/s
18-10-2014[HIGH SPEED]Zumba.-.Pause.by.Pitbull.720P1343 Kb/s
22-10-2014[TRUSTED]Zumba.-.Pause.by.Pitbull.720P2192 Kb/s
  Added: 05 Jul 2012 22:30:03
  Checked: Not yet
  Tracker(s): http://tracker.thepiratebay.org/announce
udp://tracker.openbittorrent.com:80
udp://tracker.ccc.de:80
udp://tracker.publicbt.com:80
  Hash: 9C3BB381A90C2A04AE6B98ECBBAA6E2A8F98F23C
  File(s): Zumba- Pause by Pitbull.mp4 - 41941877
  Description:
Zumba Fitness, Pause by Pitbull 720P
General
Complete name                            : Zumba- Pause by Pitbull.mp4
Format                                   : MPEG-4
Format profile                           : Base Media / Version 2
Codec ID                                 : mp42
File size                                : 40.0 MiB
Duration                                 : 3mn 16s
Overall bit rate mode                    : Variable
Overall bit rate                         : 1 705 Kbps
Video
ID                                       : 1
Format                                   : AVC
Format/Info                              : Advanced Video Codec
Format profile                           : High@L3.1
Format settings, CABAC                   : Yes
Format settings, ReFrames                : 1 frame
Codec ID                                 : avc1
Codec ID/Info                            : Advanced Video Coding
Duration                                 : 3mn 16s
Bit rate                                 : 1 555 Kbps
Maximum bit rate                         : 3 329 Kbps
Width                                    : 1 280 pixels
Height                                   : 720 pixels
Display aspect ratio                     : 16:9
Frame rate mode                          : Variable
Frame rate                               : 23.976 fps
Minimum frame rate                       : 17.241 fps
Maximum frame rate                       : 24.390 fps
Color space                              : YUV
Chroma subsampling                       : 4:2:0
Bit depth                                : 8 bits
Scan type                                : Progressive
Bits/ Pixel Frame                        : 0.070
Stream size                              : 36.5 MiB  91  
Audio
ID                                       : 2
Format                                   : AAC
Format/Info                              : Advanced Audio Codec
Format profile                           : LC
Codec ID                                 : 40
Duration                                 : 3mn 16s
Bit rate mode                            : Variable
Bit rate                                 : 144 Kbps
Maximum bit rate                         : 232 Kbps
Channel s                                : 2 channels
Channel positions                        : Front: L R
Sampling rate                            : 44.1 KHz
Compression mode                         : Lossy
Stream size                              : 3.39 MiB  8  
  Similar torrents:Zumba Step By Step dmg.torrent
Zumba Step By Step.dmg.torrent
The Art of Getting By (2011) 720p BrRip x264 - 600MB - YIFY.torrent
The Art Of Getting By 2011 720p BRrip sujaidr.torrent
The Art Of Getting By 2011 720p BRRiP XViD AC3-REFiLL.torrent
Rocket City Rednecks S01E08 Backwoods By Satellite 720p HDTV x26.torrent
Top.Chef.Just.Desserts.S02E07.Death.by.Chocolate.720p.HDTV.x264-.torrent
Chammak Challo Official Song Sung by Akon 720p mp4.torrent
Godfrey Black By Accident 720p HDTV x264-MOMENTUM.torrent
Lockup S12E06 Baptism by Fire 720p HDTV x264-MOMENTUM.torrent
National.Geographic.Mighty.Movers.By.Sea.720p.HDTV.x264-TASTETV.torrent

Free images hosting for your posts




 

Recent searches:
nuvi mindhunters los lakers parental knife dvd polà una vita da formica pta bluray disney miriam gonzales kat prototype pna map proFile juliette buttman magazine mazinga ita dvd power2GO ihsahn cock worship teen s t a l k e r kylie minogue avi diamond 13 2009 hitman blood pc jenna mp4 queer as hit mania estate dublado blu ray bob dylan rare disney dvd ita
logo


MyDNS.pro GeoIPDNS professional DNS hosting

Affordable VPN service Affordable DNS hosting, GeoDNS, Managed DNS Torrentz.to Torrentz.sx Torrentz.ms Torrents.sx Torrents.si Torrents.dj