I'm just loving these guys !

HighSpeed downloads:
Added TitleSpeed
25-07-2015THE.AVENGERS.2012.DVDRIP.AC3.FULLVID2161 Kb/s
26-07-2015The.Avengers.2012.DVDRiP.AC3.FULLVID.rar1867 Kb/s
24-07-2015[COMPLETE]The.Avengers.2012.DVDRiP.AC3.FULLVID.zip2144 Kb/s
28-07-2015[FULL RELEASE]The.Avengers.2012.DVDRiP.AC3.FULLVID1225 Kb/s
29-07-2015[FULL]The.Avengers.2012.DVDRiP.AC3.FULLVID2107 Kb/s
22-07-2015[HIGH SPEED]The.Avengers.2012.DVDRiP.AC3.FULLVID1680 Kb/s
29-07-2015[TRUSTED]The.Avengers.2012.DVDRiP.AC3.FULLVID1094 Kb/s
  Added: 11 Jul 2012 17:48:04
  Checked: Not yet
  Tracker(s): http://tracker.thepiratebay.org/announce
udp://tracker.openbittorrent.com:80
udp://tracker.ccc.de:80
udp://tracker.istole.it:80
udp://tracker.publicbt.com:80
udp://9.rarbg.com:2710/announce
udp://fr33domtracker.h33t.com:3310/announce
udp://tracker.1337x.org:80/announce
http://exodus.desync.com:6969/announce
http://fr33dom.h33t.com:3310/announce
  Hash: 41D5D0850E45A79344CC58EDB7203A08E4BF4D9D
  File(s): The Avengers 2012 DVDRiP AC3 FULLVID.part01.rar - 99000000
The Avengers 2012 DVDRiP AC3 FULLVID.part02.rar - 99000000
The Avengers 2012 DVDRiP AC3 FULLVID.part03.rar - 99000000
The Avengers 2012 DVDRiP AC3 FULLVID.part04.rar - 99000000
The Avengers 2012 DVDRiP AC3 FULLVID.part05.rar - 99000000
The Avengers 2012 DVDRiP AC3 FULLVID.part06.rar - 99000000
The Avengers 2012 DVDRiP AC3 FULLVID.part07.rar - 99000000
The Avengers 2012 DVDRiP AC3 FULLVID.part08.rar - 99000000
The Avengers 2012 DVDRiP AC3 FULLVID.part09.rar - 47109982
  Description:
 http://imageshack.us/photo/my-images/846/30686142.jpg/ 
http://imageshack.us/photo/my-images/233/72814341.jpg/ 
http://imageshack.us/photo/my-images/51/53836112.jpg/ 
http://imageshack.us/photo/my-images/856/83508727.jpg/ 
http://imageshack.us/photo/my-images/823/85378126.jpg/ 
http://imageshack.us/photo/my-images/834/79877088.jpg/ 
http://imageshack.us/photo/my-images/854/87861930.jpg/ 
http://imageshack.us/photo/my-images/404/14635766.jpg/ 
http://imageshack.us/photo/my-images/10/25099876.jpg/ 
http://imageshack.us/photo/my-images/4/65622994.jpg/
Details:
-------
Video
ID                               : 0
Format                           : MPEG-4 Visual
Format profile                   : AdvancedSimple@L5
Format settings, BVOP            : Yes
Format settings, QPel            : No
Format settings, GMC             : No warppoints
Format settings, Matrix          : Custom
Codec ID                         : XVID
Codec ID/Hint                    : XviD
Duration                         : 1h 41mn
Bit rate                         : 1 625 Kbps
Width                            : 720 pixels
Height                           : 304 pixels
Display aspect ratio             : 2.35:1
Frame rate                       : 23.976 fps
Resolution                       : 24 bits
Colorimetry                      : 4:2:0
Scan type                        : Progressive
Bits/ Pixel Frame                : 0.310
Stream size                      : 691 MiB  99  
Writing library                  : XviD 58
Audio
ID                               : 1
Format                           : AC-3
Format/Info                      : Audio Coding 3
Codec ID                         : 2000
Duration                         : 1h 41mn
Bit rate mode                    : Constant
Bit rate                         : 192 Kbps
Channel s                        : 2 channels
Channel positions                : L R
Sampling rate                    : 48.0 KHz
Stream size                      : 147 MiB  11  
Alignment                        : Aligned on interleaves
Interleave, duration             : 64 ms  1.53 video frames 
Interleave, preload duration     : 192 ms
-----------------------------------------  
  Similar torrents:Ice Age 2-The Meltdown[2006]DvDrip AC3[Eng]-aXXo.torrent
The Woods[2006]DvDrip AC3[Eng]-aXXo.torrent
Alone In The Dark[2005]DvDrip AC3[Eng]-aXXo.torrent
The Benchwarmers[2006]DvDrip AC3[Eng]-aXXo.torrent
The Matador[2005]DvDrip AC3[Eng]-aXXo.torrent
The.Weatherman[2005]DvDrip.AC3[Eng]-aXXo.torrent
Ultimate Avengers 2 - Rise of the Panther - DVDRip AC3 5.1 XViD.torrent
The Dudesons Movie[2006]DvDrip AC3[Eng]-aXXo.torrent
The Shaggy Dog[2006]DvDrip AC3[Eng]-aXXo.torrent
The.Pink.Panther[2006]DvDrip.AC3[Eng]-aXXo.torrent
The Ice Harvest[2005]DvDrip AC3[Eng]-aXXo.torrent

Free images hosting for your posts




 

Recent searches:
step up 2006 ANASTACIA I M OUTTA LOVE Jillian Janson oded davidoff brivido caldo ASAP ROCKY LONG LIVE ASAP gloryhole initiations 16 Shes funny that way notte scheciap 2015 arrow seizoen 3 nl subs EVIL ANGEL XXX natural born pissers jurassic world ita vasco HARDCORE Le meraviglie ava addams short fuse notte defiance fury ita thestylist wordpress banana burne notice ita notte Hitler (1997) step up 2006 720 Ligabue Non ho che te photoshop cs7 crack
logo


MyDNS.pro GeoIPDNS professional DNS hosting

Affordable VPN service Affordable DNS hosting, GeoDNS, Managed DNS Torrentz.to