HighSpeed downloads:
Added TitleSpeed
23-08-2016THE.AVENGERS.2012.DVDRIP.AC3.FULLVID1690 Kb/s
31-08-2016The.Avengers.2012.DVDRiP.AC3.FULLVID.rar1405 Kb/s
28-08-2016[COMPLETE]The.Avengers.2012.DVDRiP.AC3.FULLVID.zip1622 Kb/s
28-08-2016[FULL RELEASE]The.Avengers.2012.DVDRiP.AC3.FULLVID2260 Kb/s
28-08-2016[FULL]The.Avengers.2012.DVDRiP.AC3.FULLVID2257 Kb/s
22-08-2016[HIGH SPEED]The.Avengers.2012.DVDRiP.AC3.FULLVID1452 Kb/s
22-08-2016[TRUSTED]The.Avengers.2012.DVDRiP.AC3.FULLVID2117 Kb/s
  Added: 11 Jul 2012 17:48:04
  Checked: Not yet
  Tracker(s): http://tracker.thepiratebay.org/announce
udp://tracker.openbittorrent.com:80
udp://tracker.ccc.de:80
udp://tracker.istole.it:80
udp://tracker.publicbt.com:80
udp://9.rarbg.com:2710/announce
udp://fr33domtracker.h33t.com:3310/announce
udp://tracker.1337x.org:80/announce
http://exodus.desync.com:6969/announce
http://fr33dom.h33t.com:3310/announce
  Hash: 41D5D0850E45A79344CC58EDB7203A08E4BF4D9D
  File(s): The Avengers 2012 DVDRiP AC3 FULLVID.part01.rar - 99000000
The Avengers 2012 DVDRiP AC3 FULLVID.part02.rar - 99000000
The Avengers 2012 DVDRiP AC3 FULLVID.part03.rar - 99000000
The Avengers 2012 DVDRiP AC3 FULLVID.part04.rar - 99000000
The Avengers 2012 DVDRiP AC3 FULLVID.part05.rar - 99000000
The Avengers 2012 DVDRiP AC3 FULLVID.part06.rar - 99000000
The Avengers 2012 DVDRiP AC3 FULLVID.part07.rar - 99000000
The Avengers 2012 DVDRiP AC3 FULLVID.part08.rar - 99000000
The Avengers 2012 DVDRiP AC3 FULLVID.part09.rar - 47109982
  Description:
 http://imageshack.us/photo/my-images/846/30686142.jpg/ 
http://imageshack.us/photo/my-images/233/72814341.jpg/ 
http://imageshack.us/photo/my-images/51/53836112.jpg/ 
http://imageshack.us/photo/my-images/856/83508727.jpg/ 
http://imageshack.us/photo/my-images/823/85378126.jpg/ 
http://imageshack.us/photo/my-images/834/79877088.jpg/ 
http://imageshack.us/photo/my-images/854/87861930.jpg/ 
http://imageshack.us/photo/my-images/404/14635766.jpg/ 
http://imageshack.us/photo/my-images/10/25099876.jpg/ 
http://imageshack.us/photo/my-images/4/65622994.jpg/
Details:
-------
Video
ID                               : 0
Format                           : MPEG-4 Visual
Format profile                   : AdvancedSimple@L5
Format settings, BVOP            : Yes
Format settings, QPel            : No
Format settings, GMC             : No warppoints
Format settings, Matrix          : Custom
Codec ID                         : XVID
Codec ID/Hint                    : XviD
Duration                         : 1h 41mn
Bit rate                         : 1 625 Kbps
Width                            : 720 pixels
Height                           : 304 pixels
Display aspect ratio             : 2.35:1
Frame rate                       : 23.976 fps
Resolution                       : 24 bits
Colorimetry                      : 4:2:0
Scan type                        : Progressive
Bits/ Pixel Frame                : 0.310
Stream size                      : 691 MiB  99  
Writing library                  : XviD 58
Audio
ID                               : 1
Format                           : AC-3
Format/Info                      : Audio Coding 3
Codec ID                         : 2000
Duration                         : 1h 41mn
Bit rate mode                    : Constant
Bit rate                         : 192 Kbps
Channel s                        : 2 channels
Channel positions                : L R
Sampling rate                    : 48.0 KHz
Stream size                      : 147 MiB  11  
Alignment                        : Aligned on interleaves
Interleave, duration             : 64 ms  1.53 video frames 
Interleave, preload duration     : 192 ms
-----------------------------------------  
  Similar torrents:Deck.The.Halls[2006]DvDrip.AC3[Eng].torrent
The House of the Spirits (1993) DVDRip AC3 PL SUB.torrent
Peter.And.The.Wolf.2006.DVDRip.AC3.5.1-SNK.torrent
Deck-The-Halls-2006-DvDrip-AC3-Eng.torrent
VO.In The Name of The King (2008) [DVDRip + Ac3][English + Sub.S.torrent
The.Kingdom[2007]DvDrip.AC3[Eng]-FinesT.torrent
Karas.The.Revelation[2007]DvDrip.AC3[Eng]-NapolG.torrent
Shrek The Third[2007]DvDrip AC3[Eng]-FXG.torrent
Shrek.The.Third[2007]DvDrip.AC3[Eng]-aXXo.torrent
Deck.The.Halls[2006]DvDrip.AC3[Eng]-aXXo.torrent
The Avengers Season7 [DVDRip(XVID)].torrent

Free images hosting for your posts




logo


MyDNS.pro GeoIPDNS professional DNS hosting

Affordable VPN service Affordable DNS hosting, GeoDNS, Managed DNS Torrentz.to