I'm just loving these guys !

HighSpeed downloads:
Added TitleSpeed
19-10-2014THE.AVENGERS.2012.DVDRIP.AC3.FULLVID1317 Kb/s
13-10-2014The.Avengers.2012.DVDRiP.AC3.FULLVID.rar1641 Kb/s
16-10-2014[COMPLETE]The.Avengers.2012.DVDRiP.AC3.FULLVID.zip1420 Kb/s
20-10-2014[FULL RELEASE]The.Avengers.2012.DVDRiP.AC3.FULLVID1327 Kb/s
13-10-2014[FULL]The.Avengers.2012.DVDRiP.AC3.FULLVID1690 Kb/s
14-10-2014[HIGH SPEED]The.Avengers.2012.DVDRiP.AC3.FULLVID2427 Kb/s
16-10-2014[TRUSTED]The.Avengers.2012.DVDRiP.AC3.FULLVID2327 Kb/s
  Added: 11 Jul 2012 17:48:04
  Checked: Not yet
  Tracker(s): http://tracker.thepiratebay.org/announce
udp://tracker.openbittorrent.com:80
udp://tracker.ccc.de:80
udp://tracker.istole.it:80
udp://tracker.publicbt.com:80
udp://9.rarbg.com:2710/announce
udp://fr33domtracker.h33t.com:3310/announce
udp://tracker.1337x.org:80/announce
http://exodus.desync.com:6969/announce
http://fr33dom.h33t.com:3310/announce
  Hash: 41D5D0850E45A79344CC58EDB7203A08E4BF4D9D
  File(s): The Avengers 2012 DVDRiP AC3 FULLVID.part01.rar - 99000000
The Avengers 2012 DVDRiP AC3 FULLVID.part02.rar - 99000000
The Avengers 2012 DVDRiP AC3 FULLVID.part03.rar - 99000000
The Avengers 2012 DVDRiP AC3 FULLVID.part04.rar - 99000000
The Avengers 2012 DVDRiP AC3 FULLVID.part05.rar - 99000000
The Avengers 2012 DVDRiP AC3 FULLVID.part06.rar - 99000000
The Avengers 2012 DVDRiP AC3 FULLVID.part07.rar - 99000000
The Avengers 2012 DVDRiP AC3 FULLVID.part08.rar - 99000000
The Avengers 2012 DVDRiP AC3 FULLVID.part09.rar - 47109982
  Description:
 http://imageshack.us/photo/my-images/846/30686142.jpg/ 
http://imageshack.us/photo/my-images/233/72814341.jpg/ 
http://imageshack.us/photo/my-images/51/53836112.jpg/ 
http://imageshack.us/photo/my-images/856/83508727.jpg/ 
http://imageshack.us/photo/my-images/823/85378126.jpg/ 
http://imageshack.us/photo/my-images/834/79877088.jpg/ 
http://imageshack.us/photo/my-images/854/87861930.jpg/ 
http://imageshack.us/photo/my-images/404/14635766.jpg/ 
http://imageshack.us/photo/my-images/10/25099876.jpg/ 
http://imageshack.us/photo/my-images/4/65622994.jpg/
Details:
-------
Video
ID                               : 0
Format                           : MPEG-4 Visual
Format profile                   : AdvancedSimple@L5
Format settings, BVOP            : Yes
Format settings, QPel            : No
Format settings, GMC             : No warppoints
Format settings, Matrix          : Custom
Codec ID                         : XVID
Codec ID/Hint                    : XviD
Duration                         : 1h 41mn
Bit rate                         : 1 625 Kbps
Width                            : 720 pixels
Height                           : 304 pixels
Display aspect ratio             : 2.35:1
Frame rate                       : 23.976 fps
Resolution                       : 24 bits
Colorimetry                      : 4:2:0
Scan type                        : Progressive
Bits/ Pixel Frame                : 0.310
Stream size                      : 691 MiB  99  
Writing library                  : XviD 58
Audio
ID                               : 1
Format                           : AC-3
Format/Info                      : Audio Coding 3
Codec ID                         : 2000
Duration                         : 1h 41mn
Bit rate mode                    : Constant
Bit rate                         : 192 Kbps
Channel s                        : 2 channels
Channel positions                : L R
Sampling rate                    : 48.0 KHz
Stream size                      : 147 MiB  11  
Alignment                        : Aligned on interleaves
Interleave, duration             : 64 ms  1.53 video frames 
Interleave, preload duration     : 192 ms
-----------------------------------------  
  Similar torrents:[xtremespeeds net] The Lawless 2007 DVDRiP AC3 XViD.torrent
The.Boneyard.1991.DVDRip.AC3.XviD-Slayer.torrent
Hannah Montana-The Movie[2009]DVDRip[AC3][En]DivX-Ch4cal.torrent
The Crypt 2009 DvDRip AC3 5 1-FxM.torrent
[torrent-y net] Krypta-The Crypt 2009[DvDRip AC3 5 1][napisy PL]FxM.torrent
The visitor XVID DVDrip AC3 By cowboysgroup to www cowboysdelared es avi.torrent
Journey to the Far Side of the Sun 1969 DVDRip AC3 XviD-TMRC.torrent
The Crypt 2009 DvDRip AC3 5 1-FxM.torrent
The Crypt 2009 DvDRip AC3 5 1-FxM.torrent
The Crypt 2009 DvDRip AC3 5 1-FxM.torrent
The.Watcher.In.The.Woods.1980.DVDRip.AC3.XviD-Seanboy.torrent

Free images hosting for your posts




 

Recent searches:
nuvi mindhunters los lakers parental knife dvd polà una vita da formica pta bluray disney miriam gonzales kat prototype pna map proFile juliette buttman magazine mazinga ita dvd power2GO ihsahn cock worship teen s t a l k e r kylie minogue avi diamond 13 2009 hitman blood pc jenna mp4 queer as hit mania estate dublado blu ray bob dylan rare disney dvd ita
logo


MyDNS.pro GeoIPDNS professional DNS hosting

Affordable VPN service Affordable DNS hosting, GeoDNS, Managed DNS Torrentz.to Torrentz.sx Torrentz.ms Torrents.sx Torrents.si Torrents.dj