HighSpeed downloads:
Added TitleSpeed
24-03-2017THE-AVENGERS-2012-DVDRIP-AC3-FU1880 Kb/s
25-03-2017The-Avengers-2012-DVDRiP-AC3-FU.rar1233 Kb/s
20-03-2017[COMPLETE]The-Avengers-2012-DVDRiP-AC3-FU.zip1968 Kb/s
18-03-2017[FULL RELEASE]The-Avengers-2012-DVDRiP-AC3-FU1539 Kb/s
20-03-2017[FULL]The-Avengers-2012-DVDRiP-AC3-FU1306 Kb/s
23-03-2017[HIGH SPEED]The-Avengers-2012-DVDRiP-AC3-FU2056 Kb/s
26-03-2017[TRUSTED]The-Avengers-2012-DVDRiP-AC3-FU1734 Kb/s
  Added: 11 Jul 2012 17:48:04
  Checked: Not yet
  Tracker(s): http://tracker.thepiratebay.org/announce
udp://tracker.openbittorrent.com:80
udp://tracker.ccc.de:80
udp://tracker.istole.it:80
udp://tracker.publicbt.com:80
udp://9.rarbg.com:2710/announce
udp://fr33domtracker.h33t.com:3310/announce
udp://tracker.1337x.org:80/announce
http://exodus.desync.com:6969/announce
http://fr33dom.h33t.com:3310/announce
  Hash: 41D5D0850E45A79344CC58EDB7203A08E4BF4D9D
  File(s): The Avengers 2012 DVDRiP AC3 FULLVID.part01.rar - 99000000
The Avengers 2012 DVDRiP AC3 FULLVID.part02.rar - 99000000
The Avengers 2012 DVDRiP AC3 FULLVID.part03.rar - 99000000
The Avengers 2012 DVDRiP AC3 FULLVID.part04.rar - 99000000
The Avengers 2012 DVDRiP AC3 FULLVID.part05.rar - 99000000
The Avengers 2012 DVDRiP AC3 FULLVID.part06.rar - 99000000
The Avengers 2012 DVDRiP AC3 FULLVID.part07.rar - 99000000
The Avengers 2012 DVDRiP AC3 FULLVID.part08.rar - 99000000
The Avengers 2012 DVDRiP AC3 FULLVID.part09.rar - 47109982
  Description:
 http://imageshack.us/photo/my-images/846/30686142.jpg/ 
http://imageshack.us/photo/my-images/233/72814341.jpg/ 
http://imageshack.us/photo/my-images/51/53836112.jpg/ 
http://imageshack.us/photo/my-images/856/83508727.jpg/ 
http://imageshack.us/photo/my-images/823/85378126.jpg/ 
http://imageshack.us/photo/my-images/834/79877088.jpg/ 
http://imageshack.us/photo/my-images/854/87861930.jpg/ 
http://imageshack.us/photo/my-images/404/14635766.jpg/ 
http://imageshack.us/photo/my-images/10/25099876.jpg/ 
http://imageshack.us/photo/my-images/4/65622994.jpg/
Details:
-------
Video
ID                               : 0
Format                           : MPEG-4 Visual
Format profile                   : AdvancedSimple@L5
Format settings, BVOP            : Yes
Format settings, QPel            : No
Format settings, GMC             : No warppoints
Format settings, Matrix          : Custom
Codec ID                         : XVID
Codec ID/Hint                    : XviD
Duration                         : 1h 41mn
Bit rate                         : 1 625 Kbps
Width                            : 720 pixels
Height                           : 304 pixels
Display aspect ratio             : 2.35:1
Frame rate                       : 23.976 fps
Resolution                       : 24 bits
Colorimetry                      : 4:2:0
Scan type                        : Progressive
Bits/ Pixel Frame                : 0.310
Stream size                      : 691 MiB  99  
Writing library                  : XviD 58
Audio
ID                               : 1
Format                           : AC-3
Format/Info                      : Audio Coding 3
Codec ID                         : 2000
Duration                         : 1h 41mn
Bit rate mode                    : Constant
Bit rate                         : 192 Kbps
Channel s                        : 2 channels
Channel positions                : L R
Sampling rate                    : 48.0 KHz
Stream size                      : 147 MiB  11  
Alignment                        : Aligned on interleaves
Interleave, duration             : 64 ms  1.53 video frames 
Interleave, preload duration     : 192 ms
-----------------------------------------  
  Similar torrents:The.Punisher[2004]DvDrip.AC3[Eng][Multi-Sub]-Vex.torrent
The Duchess[2008] Dvdrip AC3[5 1] [Eng]-RoCK&BlueLadyRG.torrent
Shrek.The.Third[2007]DvDrip.AC3[Eng]-aXXo.torrent
Australia The Movie-2008-DvDrip AC3-aXXo avi.torrent
Australia.The.Movie.2008.DvDrip.AC3-aXXo.avi.torrent
The Chaser 2008 DVDRip AC3 XviD 2CD-BiFOS.torrent
The Fly(1986)DVDrip(AC3-5.1)ENG(a UKB-KvCD Xvid Release by)- kel.torrent
The.Jackal[1997]DvDrip.AC3[Eng][Multi-Sub]-Vex.torrent
Asterix.and.the.Vikings[2006]DvDrip AC3[Eng]-aXXo.torrent
Belly.Of.The.Beast[2003]DvDrip.AC3[Eng]-aXXo.torrent
The.Cave[2005]DvDrip.AC3[Eng]-aXXo.torrent

Free images hosting for your posts



logo


MyDNS.pro GeoIPDNS professional DNS hosting
Torrentz.to