HighSpeed downloads:
Added TitleSpeed
28-08-2015ICE.AGE.CONTINENTAL.DRIFT.(2012).DVDRIP.XVID-MA1678 Kb/s
24-08-2015Ice.Age.Continental.Drift.(2012).DVDRip.XviD-MA.rar1863 Kb/s
26-08-2015[COMPLETE]Ice.Age.Continental.Drift.(2012).DVDRip.XviD-MA.zip1778 Kb/s
28-08-2015[FULL RELEASE]Ice.Age.Continental.Drift.(2012).DVDRip.XviD-MA1418 Kb/s
30-08-2015[FULL]Ice.Age.Continental.Drift.(2012).DVDRip.XviD-MA1817 Kb/s
27-08-2015[HIGH SPEED]Ice.Age.Continental.Drift.(2012).DVDRip.XviD-MA1529 Kb/s
01-09-2015[TRUSTED]Ice.Age.Continental.Drift.(2012).DVDRip.XviD-MA1864 Kb/s
  Added: 11 Jul 2012 20:00:15
  Checked: Not yet
  Tracker(s): http://tracker.thepiratebay.org/announce
udp://tracker.openbittorrent.com:80
udp://tracker.ccc.de:80
udp://tracker.publicbt.com:80
udp://fr33domtracker.h33t.com:3310/announce
http://cpleft.com:2710/announce
http://bigtorrent.org:2710/announce
udp://tracker.1337x.org:80/announce
http://exodus.desync.com:6969/announce
http://tracker.ex.ua/announce
http://fr33dom.h33t.com:3310/announce
  Hash: 35796A862D819AF19FF97926EA643FFBAE84A5DF
  File(s): Ice Age Continental Drift (2012) DVDRip XviD-MA.wmv - 1403893124
Ice Age Continental Drift 2012 Sample.wmv - 14011793
Torrent downloaded from Demonoid.me.txt - 46
Torrent downloaded from Extratorrent.com.txt - 40
Torrent downloaded from Rarbg.com.txt - 33
  Description:
http://www4.picturepush.com/photo/a/8626142/640/Picture-Box/Ice-Age-4.jpg
Ice Age Continental Drift 2012
Format                           : WMV
Format/Info                      : Audio Video Interleave
Format profile                   : OpenDML
Duration                         : 2h 12mn
Overall bit rate                 : 1 398 Kbps
Writing application              : VirtualDubMod 1.5.10.2  build 2542/release 
Writing library                  : VirtualDubMod build 2542/release
Original source form             : MAX TORRENTZ
Copyright                        : SIGISMUNT
Video
ID                               : 0
Format                           : MPEG-4 Visual
Format profile                   : AdvancedSimple@L5
Format settings, BVOP            : Yes
Format settings, QPel            : No
Format settings, GMC             : No warppoints
Format settings, Matrix          : Default  MPEG 
Codec ID                         : XVID
Codec ID/Hint                    : XviD
Duration                         : 2h 12mn
Bit rate                         : 1 009 Kbps
Width                            : 640 pixels
Height                           : 272 pixels
Display aspect ratio             : 2.35:1
Frame rate                       : 23.976 fps
Resolution                       : 24 bits
Colorimetry                      : 4:2:0
Scan type                        : Progressive
Bits/ Pixel Frame                : 0.242
Stream size                      : 959 MiB  72  
Writing library                  : XviD 64
Audio
ID                               : 1
Format                           : AC-3
Format/Info                      : Audio Coding 3
Codec ID                         : 2000
Duration                         : 2h 12mn
Bit rate mode                    : Constant
Bit rate                         : 384 Kbps
Channel s                        : 6 channels
Channel positions                : Front: L C R, Surround: L R, LFE
Sampling rate                    : 48.0 KHz
Stream size                      : 365 MiB  27  
Alignment                        : Aligned on interleaves
Interleave, duration             : 64 ms  1.53 video frames 
Interleave, preload duration     : 192 ms
Source: DVD  perfect a/v/sync quality,sample included,hardcoded english
subs for few original foreign parts 
This torrent is not seedbox supported,please seed it to the MAX
NOTE
BE AWARE OF BOGUS SITES , FAKE FILES  AND 
STUPID SPAMMERS DOWNLOAD ALWAYS YOUR MAX DATA FROM OUR SITE 
Recommended player for all our movies
REMEMBER: GOD DEMANDS LOVE,SEEDS,PEERS AND A FAIR TORRENT RATIO
Copyright         
  Similar torrents:Ice Age (2002) [DVDRip.XviD].torrent
Ice Age 2: The Meltdown (2006) [DVDRip.XviD].torrent
The.Fast.And.The.Furious.Tokyo.Drift.DVDRip.XviD-DiAMOND.avi.torrent
Ice Age 2-The Meltdown[2006]DvDrip AC3[Eng]-aXXo.torrent
Bergman Ingmar Cries and Whispers Rop1972 DVDRip XviD ENG ESP PtBR Subtitles by espantalho.torrent
The.Black.Dahlia.2006.iTALiAN.LD.DVDRip.XviD-SiLENT [COLOMBO-BT.ORG][CINEMA.ITALIANO].torrent
Jaws 2 SWESUB DVDrip XviD.torrent
Soylent.Green.1973.WS.DVDRip.XviD-AXIAL.torrent
National.Lampoons.Pledge.This.2006.LiMiTED.DVDRip.XviD-BeStDivX.torrent
GGG.Alles.runtergeschluckt.und.jetzt.German.2006.XXX.DVDRiP.XviD-WDE.torrent
soul.plane.unrated.dvdrip.xvid-dvp.(osloskop.net).avi.torrent

Free images hosting for your posts




 

Recent searches:
step up 2006 ANASTACIA I M OUTTA LOVE Jillian Janson oded davidoff brivido caldo ASAP ROCKY LONG LIVE ASAP gloryhole initiations 16 Shes funny that way notte scheciap 2015 arrow seizoen 3 nl subs EVIL ANGEL XXX natural born pissers jurassic world ita vasco HARDCORE Le meraviglie ava addams short fuse notte defiance fury ita thestylist wordpress banana burne notice ita notte Hitler (1997) step up 2006 720 Ligabue Non ho che te photoshop cs7 crack
logo


MyDNS.pro GeoIPDNS professional DNS hosting

Affordable VPN service Affordable DNS hosting, GeoDNS, Managed DNS Torrentz.to