I'm just loving these guys !

HighSpeed downloads:
Added TitleSpeed
20-10-2014ICE.AGE.CONTINENTAL.DRIFT.(2012).DVDRIP.XVID-MA1493 Kb/s
11-10-2014Ice.Age.Continental.Drift.(2012).DVDRip.XviD-MA.rar2229 Kb/s
19-10-2014[COMPLETE]Ice.Age.Continental.Drift.(2012).DVDRip.XviD-MA.zip2142 Kb/s
16-10-2014[FULL RELEASE]Ice.Age.Continental.Drift.(2012).DVDRip.XviD-MA1109 Kb/s
19-10-2014[FULL]Ice.Age.Continental.Drift.(2012).DVDRip.XviD-MA1718 Kb/s
18-10-2014[HIGH SPEED]Ice.Age.Continental.Drift.(2012).DVDRip.XviD-MA2322 Kb/s
15-10-2014[TRUSTED]Ice.Age.Continental.Drift.(2012).DVDRip.XviD-MA1202 Kb/s
  Added: 11 Jul 2012 20:00:15
  Checked: Not yet
  Tracker(s): http://tracker.thepiratebay.org/announce
udp://tracker.openbittorrent.com:80
udp://tracker.ccc.de:80
udp://tracker.publicbt.com:80
udp://fr33domtracker.h33t.com:3310/announce
http://cpleft.com:2710/announce
http://bigtorrent.org:2710/announce
udp://tracker.1337x.org:80/announce
http://exodus.desync.com:6969/announce
http://tracker.ex.ua/announce
http://fr33dom.h33t.com:3310/announce
  Hash: 35796A862D819AF19FF97926EA643FFBAE84A5DF
  File(s): Ice Age Continental Drift (2012) DVDRip XviD-MA.wmv - 1403893124
Ice Age Continental Drift 2012 Sample.wmv - 14011793
Torrent downloaded from Demonoid.me.txt - 46
Torrent downloaded from Extratorrent.com.txt - 40
Torrent downloaded from Rarbg.com.txt - 33
  Description:
http://www4.picturepush.com/photo/a/8626142/640/Picture-Box/Ice-Age-4.jpg
Ice Age Continental Drift 2012
Format                           : WMV
Format/Info                      : Audio Video Interleave
Format profile                   : OpenDML
Duration                         : 2h 12mn
Overall bit rate                 : 1 398 Kbps
Writing application              : VirtualDubMod 1.5.10.2  build 2542/release 
Writing library                  : VirtualDubMod build 2542/release
Original source form             : MAX TORRENTZ
Copyright                        : SIGISMUNT
Video
ID                               : 0
Format                           : MPEG-4 Visual
Format profile                   : AdvancedSimple@L5
Format settings, BVOP            : Yes
Format settings, QPel            : No
Format settings, GMC             : No warppoints
Format settings, Matrix          : Default  MPEG 
Codec ID                         : XVID
Codec ID/Hint                    : XviD
Duration                         : 2h 12mn
Bit rate                         : 1 009 Kbps
Width                            : 640 pixels
Height                           : 272 pixels
Display aspect ratio             : 2.35:1
Frame rate                       : 23.976 fps
Resolution                       : 24 bits
Colorimetry                      : 4:2:0
Scan type                        : Progressive
Bits/ Pixel Frame                : 0.242
Stream size                      : 959 MiB  72  
Writing library                  : XviD 64
Audio
ID                               : 1
Format                           : AC-3
Format/Info                      : Audio Coding 3
Codec ID                         : 2000
Duration                         : 2h 12mn
Bit rate mode                    : Constant
Bit rate                         : 384 Kbps
Channel s                        : 6 channels
Channel positions                : Front: L C R, Surround: L R, LFE
Sampling rate                    : 48.0 KHz
Stream size                      : 365 MiB  27  
Alignment                        : Aligned on interleaves
Interleave, duration             : 64 ms  1.53 video frames 
Interleave, preload duration     : 192 ms
Source: DVD  perfect a/v/sync quality,sample included,hardcoded english
subs for few original foreign parts 
This torrent is not seedbox supported,please seed it to the MAX
NOTE
BE AWARE OF BOGUS SITES , FAKE FILES  AND 
STUPID SPAMMERS DOWNLOAD ALWAYS YOUR MAX DATA FROM OUR SITE 
Recommended player for all our movies
REMEMBER: GOD DEMANDS LOVE,SEEDS,PEERS AND A FAIR TORRENT RATIO
Copyright         
  Similar torrents:Ice.Age.3.2009.SWEDISH.DVDRip.XviD-Pride86.torrent
Ice Age The Meltdown REPACK DVDRip XviD-NoGrp - [www.RapidTreggy.com ].torrent
Ice Age The Meltdown REPACK DVDRip XviD-NoGrp[ Torrentzilla.org ].torrent
Ice Age The Meltdown REPACK DVDRip XviD-NoGrp [www.torrentsforall.net].torrent
Ice Age The Meltdown REPACK DVDRip XviD-NoGrp (torrentz-galore.co.uk).torrent
Ice.Age.3.2009.FRENCH.DVDRiP.XViD - BOUMBO.avi.torrent
Ice Age 2: The Meltdown(DVDRip)(xvid)-Goblin10.torrent
Dancing On Ice The Live Tour 2009 DVDRip XviD-Jucified.NoRar..torrent
Ice.Age.3.TS.LD.Deutsch.XviD Duplo.torrent.torrent
Ice.Age.3.TS.LD.Deutsch.XviD-Duplo.torrent.torrent
Ice Age Short Surviving Sid BRRip XviD AC3-DEViSE[www twilighttorrents net] [SEEDBOX].torrent

Free images hosting for your posts




 

Recent searches:
nuvi mindhunters los lakers parental knife dvd polà una vita da formica pta bluray disney miriam gonzales kat prototype pna map proFile juliette buttman magazine mazinga ita dvd power2GO ihsahn cock worship teen s t a l k e r kylie minogue avi diamond 13 2009 hitman blood pc jenna mp4 queer as hit mania estate dublado blu ray bob dylan rare disney dvd ita
logo


MyDNS.pro GeoIPDNS professional DNS hosting

Affordable VPN service Affordable DNS hosting, GeoDNS, Managed DNS Torrentz.to Torrentz.sx Torrentz.ms Torrents.sx Torrents.si Torrents.dj