HighSpeed downloads:
Added TitleSpeed
13-06-2017ICE-AGE-CONTINENTAL-DRIFT-(2012)-DVDRIP-XVID-NEDIVX2189 Kb/s
13-06-2017Ice-Age-Continental-Drift-(2012)-DVDRip-XviD-NeDiVx.rar1749 Kb/s
17-06-2017[COMPLETE]Ice-Age-Continental-Drift-(2012)-DVDRip-XviD-NeDiVx.zip2199 Kb/s
17-06-2017[FULL RELEASE]Ice-Age-Continental-Drift-(2012)-DVDRip-XviD-NeDiVx1073 Kb/s
16-06-2017[FULL]Ice-Age-Continental-Drift-(2012)-DVDRip-XviD-NeDiVx1729 Kb/s
15-06-2017[HIGH SPEED]Ice-Age-Continental-Drift-(2012)-DVDRip-XviD-NeDiVx1155 Kb/s
12-06-2017[TRUSTED]Ice-Age-Continental-Drift-(2012)-DVDRip-XviD-NeDiVx2299 Kb/s
  Added: 11 Jul 2012 20:00:14
  Checked: Not yet
  Tracker(s): http://tracker.thepiratebay.org/announce
udp://tracker.openbittorrent.com:80
udp://tracker.ccc.de:80
udp://tracker.publicbt.com:80
udp://fr33domtracker.h33t.com:3310/announce
http://cpleft.com:2710/announce
http://bigtorrent.org:2710/announce
udp://tracker.1337x.org:80/announce
http://exodus.desync.com:6969/announce
http://tracker.ex.ua/announce
http://fr33dom.h33t.com:3310/announce
  Hash: FFC1C7B9C85F2ACFD1D991D5251DC98AF85CBB80
  File(s): Ice Age Continental Drift (2012) DVDRip XviD-NeDiVx.wmv - 1373484391
Ice Age Continental Drift 2012 Sample.wmv - 14011793
Torrent downloaded from Demonoid.me.txt - 46
Torrent downloaded from Extratorrent.com.txt - 40
Torrent downloaded from Rarbg.com.txt - 33
  Description:
http://www4.picturepush.com/photo/a/8626142/640/Picture-Box/Ice-Age-4.jpg
Ice Age Continental Drift 2012
Format                           : WMV
Format/Info                      : Audio Video Interleave
Format profile                   : OpenDML
Duration                         : 2h 12mn
Overall bit rate                 : 1 398 Kbps
Writing application              : VirtualDubMod 1.5.10.2  build 2542/release 
Writing library                  : VirtualDubMod build 2542/release
Original source form             : MAX TORRENTZ
Copyright                        : SIGISMUNT
Video
ID                               : 0
Format                           : MPEG-4 Visual
Format profile                   : AdvancedSimple@L5
Format settings, BVOP            : Yes
Format settings, QPel            : No
Format settings, GMC             : No warppoints
Format settings, Matrix          : Default  MPEG 
Codec ID                         : XVID
Codec ID/Hint                    : XviD
Duration                         : 2h 12mn
Bit rate                         : 1 009 Kbps
Width                            : 640 pixels
Height                           : 272 pixels
Display aspect ratio             : 2.35:1
Frame rate                       : 23.976 fps
Resolution                       : 24 bits
Colorimetry                      : 4:2:0
Scan type                        : Progressive
Bits/ Pixel Frame                : 0.242
Stream size                      : 959 MiB  72  
Writing library                  : XviD 64
Audio
ID                               : 1
Format                           : AC-3
Format/Info                      : Audio Coding 3
Codec ID                         : 2000
Duration                         : 2h 12mn
Bit rate mode                    : Constant
Bit rate                         : 384 Kbps
Channel s                        : 6 channels
Channel positions                : Front: L C R, Surround: L R, LFE
Sampling rate                    : 48.0 KHz
Stream size                      : 365 MiB  27  
Alignment                        : Aligned on interleaves
Interleave, duration             : 64 ms  1.53 video frames 
Interleave, preload duration     : 192 ms
Source: DVD  perfect a/v/sync quality,sample included,hardcoded english
subs for few original foreign parts 
This torrent is not seedbox supported,please seed it to the MAX
NOTE
BE AWARE OF BOGUS SITES , FAKE FILES  AND 
STUPID SPAMMERS DOWNLOAD ALWAYS YOUR MAX DATA FROM OUR SITE 
Recommended player for all our movies
REMEMBER: GOD DEMANDS LOVE,SEEDS,PEERS AND A FAIR TORRENT RATIO
Copyright         
  Similar torrents:Expelled.No.Intelligence.Allowed.DVDRip.XviD-NeDiVx.torrent
10th And Wolf LIMITED DVDRip XviD-NeDiVx.torrent
Kids In America DVDRip XviD-NeDiVx.torrent
Gracie DVDRip XviD-NeDiVx.torrent
Curse Of The Golden Flower DVDRip XviD-NeDiVx.torrent
10 000 BC RETAIL DVDRip XviD-NeDiVx-TORRENTBUCKET.COM.torrent
The Eye DVDRip XviD-NeDiVx-www.phantombitz.com.torrent
Tthe Eye DVDRip XviD-NeDiVx http://www.twilighttorrents.net.torrent
The Eye DVDRip XviD-NeDiVx[www.torrentzilla.org].torrent
The Eye DVDRip XviD-NeDiVx WWW.CEASERS-PALACE.INFO.torrent
The Eye DVDRip XviD NeDiVx[www-seedmore-org].torrent

Free images hosting for your posts



logo


MyDNS.pro GeoIPDNS professional DNS hosting
Torrentz.to