I'm just loving these guys !

HighSpeed downloads:
Added TitleSpeed
20-01-2015ICE.AGE.CONTINENTAL.DRIFT.(2012).DVDRIP.XVID-NEDIVX2450 Kb/s
21-01-2015Ice.Age.Continental.Drift.(2012).DVDRip.XviD-NeDiVx.rar1053 Kb/s
20-01-2015[COMPLETE]Ice.Age.Continental.Drift.(2012).DVDRip.XviD-NeDiVx.zip2357 Kb/s
17-01-2015[FULL RELEASE]Ice.Age.Continental.Drift.(2012).DVDRip.XviD-NeDiVx1195 Kb/s
16-01-2015[FULL]Ice.Age.Continental.Drift.(2012).DVDRip.XviD-NeDiVx2254 Kb/s
15-01-2015[HIGH SPEED]Ice.Age.Continental.Drift.(2012).DVDRip.XviD-NeDiVx2487 Kb/s
17-01-2015[TRUSTED]Ice.Age.Continental.Drift.(2012).DVDRip.XviD-NeDiVx1220 Kb/s
  Added: 11 Jul 2012 20:00:14
  Checked: Not yet
  Tracker(s): http://tracker.thepiratebay.org/announce
udp://tracker.openbittorrent.com:80
udp://tracker.ccc.de:80
udp://tracker.publicbt.com:80
udp://fr33domtracker.h33t.com:3310/announce
http://cpleft.com:2710/announce
http://bigtorrent.org:2710/announce
udp://tracker.1337x.org:80/announce
http://exodus.desync.com:6969/announce
http://tracker.ex.ua/announce
http://fr33dom.h33t.com:3310/announce
  Hash: FFC1C7B9C85F2ACFD1D991D5251DC98AF85CBB80
  File(s): Ice Age Continental Drift (2012) DVDRip XviD-NeDiVx.wmv - 1373484391
Ice Age Continental Drift 2012 Sample.wmv - 14011793
Torrent downloaded from Demonoid.me.txt - 46
Torrent downloaded from Extratorrent.com.txt - 40
Torrent downloaded from Rarbg.com.txt - 33
  Description:
http://www4.picturepush.com/photo/a/8626142/640/Picture-Box/Ice-Age-4.jpg
Ice Age Continental Drift 2012
Format                           : WMV
Format/Info                      : Audio Video Interleave
Format profile                   : OpenDML
Duration                         : 2h 12mn
Overall bit rate                 : 1 398 Kbps
Writing application              : VirtualDubMod 1.5.10.2  build 2542/release 
Writing library                  : VirtualDubMod build 2542/release
Original source form             : MAX TORRENTZ
Copyright                        : SIGISMUNT
Video
ID                               : 0
Format                           : MPEG-4 Visual
Format profile                   : AdvancedSimple@L5
Format settings, BVOP            : Yes
Format settings, QPel            : No
Format settings, GMC             : No warppoints
Format settings, Matrix          : Default  MPEG 
Codec ID                         : XVID
Codec ID/Hint                    : XviD
Duration                         : 2h 12mn
Bit rate                         : 1 009 Kbps
Width                            : 640 pixels
Height                           : 272 pixels
Display aspect ratio             : 2.35:1
Frame rate                       : 23.976 fps
Resolution                       : 24 bits
Colorimetry                      : 4:2:0
Scan type                        : Progressive
Bits/ Pixel Frame                : 0.242
Stream size                      : 959 MiB  72  
Writing library                  : XviD 64
Audio
ID                               : 1
Format                           : AC-3
Format/Info                      : Audio Coding 3
Codec ID                         : 2000
Duration                         : 2h 12mn
Bit rate mode                    : Constant
Bit rate                         : 384 Kbps
Channel s                        : 6 channels
Channel positions                : Front: L C R, Surround: L R, LFE
Sampling rate                    : 48.0 KHz
Stream size                      : 365 MiB  27  
Alignment                        : Aligned on interleaves
Interleave, duration             : 64 ms  1.53 video frames 
Interleave, preload duration     : 192 ms
Source: DVD  perfect a/v/sync quality,sample included,hardcoded english
subs for few original foreign parts 
This torrent is not seedbox supported,please seed it to the MAX
NOTE
BE AWARE OF BOGUS SITES , FAKE FILES  AND 
STUPID SPAMMERS DOWNLOAD ALWAYS YOUR MAX DATA FROM OUR SITE 
Recommended player for all our movies
REMEMBER: GOD DEMANDS LOVE,SEEDS,PEERS AND A FAIR TORRENT RATIO
Copyright         
  Similar torrents:Bad.News.Bears.DVDRip.XviD-NeDiVx.torrent
Tristram Shandy A Cock And Bull Story 2005 LiMiTED DVDRip XviD-LMG[www moviex nn cx].torrent
Cow Belles 2006 TV DVDRip XviD-SAPHiRE[www moviex nn cx].torrent
Star.Trek.DS9.S03.DVDRip.XviD-VF.[www.startrek.com].torrent
Emperors New Groove - DVDRIP XVID AC3 DragonRipper624.torrent
Underoath Special Edition DVD DVDRip XviD-SoOTi.torrent
Lord of The Rings - The Two Towers Extended Edition - DVDRIP XVID AC3 DragonRipper624.torrent
Dream Theater - Live At Budokan DVDRip(XVID+AC3).torrent
The.Mask.1994.DVDRip.XviD.INTERNAL-DVDiSO Svensk Text.torrent
Tom And Jerry The Fast And The Furry 2005 DVDRip XviD-BETAMAX [www torrentfive com].torrent
Marvel Ultimate Avengers 2006 DVDRip XviD-MS [www torrentfive com].torrent

Free images hosting for your posts




 

Recent searches:
windows 8 1 mult finale 2014 italian frozen mp3 ita Un cazzo nella testa EQUILIBRIUM ITA norah jones greatest hits alice cooper poison masterworks Isabellas All Anal Fuck Date DMS Mashed Up Dance CatDog S2 E31 Surfing Dog Guess Whos Going To Be Dinner stalker trattativa december 2014 Ex On The Beach S1 E105 Ex On The Beach DMS Mashed Up Dance best KO s compilation remo zucchero mp3 DMS Mashed Up Dance cso Deadbeats D&B dei megli transformers 4 ita rar repair tool la leggenda di beowulf scorned 2 1997 DMS Mashed Up Dance david bowie nothing has
logo


MyDNS.pro GeoIPDNS professional DNS hosting

Affordable VPN service Affordable DNS hosting, GeoDNS, Managed DNS Torrentz.to Torrentz.sx