I'm just loving these guys !

HighSpeed downloads:
Added TitleSpeed
16-04-2014ICE.AGE.CONTINENTAL.DRIFT.(2012).DVDRIP.XVID-NEDIVX1474 Kb/s
09-04-2014Ice.Age.Continental.Drift.(2012).DVDRip.XviD-NeDiVx.rar1872 Kb/s
16-04-2014[COMPLETE]Ice.Age.Continental.Drift.(2012).DVDRip.XviD-NeDiVx.zip1864 Kb/s
09-04-2014[FULL RELEASE]Ice.Age.Continental.Drift.(2012).DVDRip.XviD-NeDiVx2452 Kb/s
17-04-2014[FULL]Ice.Age.Continental.Drift.(2012).DVDRip.XviD-NeDiVx1511 Kb/s
13-04-2014[HIGH SPEED]Ice.Age.Continental.Drift.(2012).DVDRip.XviD-NeDiVx2182 Kb/s
17-04-2014[TRUSTED]Ice.Age.Continental.Drift.(2012).DVDRip.XviD-NeDiVx2281 Kb/s
  Added: 11 Jul 2012 20:00:14
  Checked: Not yet
  Tracker(s): http://tracker.thepiratebay.org/announce
udp://tracker.openbittorrent.com:80
udp://tracker.ccc.de:80
udp://tracker.publicbt.com:80
udp://fr33domtracker.h33t.com:3310/announce
http://cpleft.com:2710/announce
http://bigtorrent.org:2710/announce
udp://tracker.1337x.org:80/announce
http://exodus.desync.com:6969/announce
http://tracker.ex.ua/announce
http://fr33dom.h33t.com:3310/announce
  Hash: FFC1C7B9C85F2ACFD1D991D5251DC98AF85CBB80
  File(s): Ice Age Continental Drift (2012) DVDRip XviD-NeDiVx.wmv - 1373484391
Ice Age Continental Drift 2012 Sample.wmv - 14011793
Torrent downloaded from Demonoid.me.txt - 46
Torrent downloaded from Extratorrent.com.txt - 40
Torrent downloaded from Rarbg.com.txt - 33
  Description:
http://www4.picturepush.com/photo/a/8626142/640/Picture-Box/Ice-Age-4.jpg
Ice Age Continental Drift 2012
Format                           : WMV
Format/Info                      : Audio Video Interleave
Format profile                   : OpenDML
Duration                         : 2h 12mn
Overall bit rate                 : 1 398 Kbps
Writing application              : VirtualDubMod 1.5.10.2  build 2542/release 
Writing library                  : VirtualDubMod build 2542/release
Original source form             : MAX TORRENTZ
Copyright                        : SIGISMUNT
Video
ID                               : 0
Format                           : MPEG-4 Visual
Format profile                   : AdvancedSimple@L5
Format settings, BVOP            : Yes
Format settings, QPel            : No
Format settings, GMC             : No warppoints
Format settings, Matrix          : Default  MPEG 
Codec ID                         : XVID
Codec ID/Hint                    : XviD
Duration                         : 2h 12mn
Bit rate                         : 1 009 Kbps
Width                            : 640 pixels
Height                           : 272 pixels
Display aspect ratio             : 2.35:1
Frame rate                       : 23.976 fps
Resolution                       : 24 bits
Colorimetry                      : 4:2:0
Scan type                        : Progressive
Bits/ Pixel Frame                : 0.242
Stream size                      : 959 MiB  72  
Writing library                  : XviD 64
Audio
ID                               : 1
Format                           : AC-3
Format/Info                      : Audio Coding 3
Codec ID                         : 2000
Duration                         : 2h 12mn
Bit rate mode                    : Constant
Bit rate                         : 384 Kbps
Channel s                        : 6 channels
Channel positions                : Front: L C R, Surround: L R, LFE
Sampling rate                    : 48.0 KHz
Stream size                      : 365 MiB  27  
Alignment                        : Aligned on interleaves
Interleave, duration             : 64 ms  1.53 video frames 
Interleave, preload duration     : 192 ms
Source: DVD  perfect a/v/sync quality,sample included,hardcoded english
subs for few original foreign parts 
This torrent is not seedbox supported,please seed it to the MAX
NOTE
BE AWARE OF BOGUS SITES , FAKE FILES  AND 
STUPID SPAMMERS DOWNLOAD ALWAYS YOUR MAX DATA FROM OUR SITE 
Recommended player for all our movies
REMEMBER: GOD DEMANDS LOVE,SEEDS,PEERS AND A FAIR TORRENT RATIO
Copyright         
  Similar torrents:

Free images hosting for your posts




 

Recent searches:
Virtual Dj Home Free american hustle Da Vincis Demons unluckylady The Thornbirds soundtrack My Wife Caught Me Assfucking Her Mother BARBRA STREISAND BARRY GIBB GUILTY teresa orlowski magic mike ita brus wilis Grimm S03E16 HDTV x264 LOL game of thrones BOMBAY BICYCLE CLUB EASIER paulina BASEMENT JAXX GOOD LUCK god hand ps2 road trip ita mario merola pollyword DiskInternals Uneraser crack sony vegas 9 Italo Disco Hits gkr xxx anale la desolazione di smaug dfdfab 9 cuelux les nouveaux chiens de garde BOMBAY BICYCLE CLUB SO LONG SEE YOU TOMORROW avs 8
logo


MyDNS.pro GeoIPDNS professional DNS hosting

Affordable VPN service Affordable DNS hosting, GeoDNS, Managed DNS Torrentz.to Torrentz.sx Torrentz.ms Torrents.sx