I'm just loving these guys !

HighSpeed downloads:
Added TitleSpeed
20-11-2014ICE.AGE.CONTINENTAL.DRIFT.(2012).DVDRIP.XVID-NEDIVX2008 Kb/s
21-11-2014Ice.Age.Continental.Drift.(2012).DVDRip.XviD-NeDiVx.rar1026 Kb/s
17-11-2014[COMPLETE]Ice.Age.Continental.Drift.(2012).DVDRip.XviD-NeDiVx.zip1497 Kb/s
19-11-2014[FULL RELEASE]Ice.Age.Continental.Drift.(2012).DVDRip.XviD-NeDiVx2459 Kb/s
17-11-2014[FULL]Ice.Age.Continental.Drift.(2012).DVDRip.XviD-NeDiVx1442 Kb/s
25-11-2014[HIGH SPEED]Ice.Age.Continental.Drift.(2012).DVDRip.XviD-NeDiVx2032 Kb/s
23-11-2014[TRUSTED]Ice.Age.Continental.Drift.(2012).DVDRip.XviD-NeDiVx1341 Kb/s
  Added: 11 Jul 2012 20:00:14
  Checked: Not yet
  Tracker(s): http://tracker.thepiratebay.org/announce
udp://tracker.openbittorrent.com:80
udp://tracker.ccc.de:80
udp://tracker.publicbt.com:80
udp://fr33domtracker.h33t.com:3310/announce
http://cpleft.com:2710/announce
http://bigtorrent.org:2710/announce
udp://tracker.1337x.org:80/announce
http://exodus.desync.com:6969/announce
http://tracker.ex.ua/announce
http://fr33dom.h33t.com:3310/announce
  Hash: FFC1C7B9C85F2ACFD1D991D5251DC98AF85CBB80
  File(s): Ice Age Continental Drift (2012) DVDRip XviD-NeDiVx.wmv - 1373484391
Ice Age Continental Drift 2012 Sample.wmv - 14011793
Torrent downloaded from Demonoid.me.txt - 46
Torrent downloaded from Extratorrent.com.txt - 40
Torrent downloaded from Rarbg.com.txt - 33
  Description:
http://www4.picturepush.com/photo/a/8626142/640/Picture-Box/Ice-Age-4.jpg
Ice Age Continental Drift 2012
Format                           : WMV
Format/Info                      : Audio Video Interleave
Format profile                   : OpenDML
Duration                         : 2h 12mn
Overall bit rate                 : 1 398 Kbps
Writing application              : VirtualDubMod 1.5.10.2  build 2542/release 
Writing library                  : VirtualDubMod build 2542/release
Original source form             : MAX TORRENTZ
Copyright                        : SIGISMUNT
Video
ID                               : 0
Format                           : MPEG-4 Visual
Format profile                   : AdvancedSimple@L5
Format settings, BVOP            : Yes
Format settings, QPel            : No
Format settings, GMC             : No warppoints
Format settings, Matrix          : Default  MPEG 
Codec ID                         : XVID
Codec ID/Hint                    : XviD
Duration                         : 2h 12mn
Bit rate                         : 1 009 Kbps
Width                            : 640 pixels
Height                           : 272 pixels
Display aspect ratio             : 2.35:1
Frame rate                       : 23.976 fps
Resolution                       : 24 bits
Colorimetry                      : 4:2:0
Scan type                        : Progressive
Bits/ Pixel Frame                : 0.242
Stream size                      : 959 MiB  72  
Writing library                  : XviD 64
Audio
ID                               : 1
Format                           : AC-3
Format/Info                      : Audio Coding 3
Codec ID                         : 2000
Duration                         : 2h 12mn
Bit rate mode                    : Constant
Bit rate                         : 384 Kbps
Channel s                        : 6 channels
Channel positions                : Front: L C R, Surround: L R, LFE
Sampling rate                    : 48.0 KHz
Stream size                      : 365 MiB  27  
Alignment                        : Aligned on interleaves
Interleave, duration             : 64 ms  1.53 video frames 
Interleave, preload duration     : 192 ms
Source: DVD  perfect a/v/sync quality,sample included,hardcoded english
subs for few original foreign parts 
This torrent is not seedbox supported,please seed it to the MAX
NOTE
BE AWARE OF BOGUS SITES , FAKE FILES  AND 
STUPID SPAMMERS DOWNLOAD ALWAYS YOUR MAX DATA FROM OUR SITE 
Recommended player for all our movies
REMEMBER: GOD DEMANDS LOVE,SEEDS,PEERS AND A FAIR TORRENT RATIO
Copyright         
  Similar torrents:Miami.Vice.DVDRip.XviD-NeDiVx.torrent
Bad.News.Bears.DVDRip.XviD-NeDiVx.torrent
Ice Age (2002) [DVDRip.XviD].torrent
Ice Age 2: The Meltdown (2006) [DVDRip.XviD].torrent
The.Fast.And.The.Furious.Tokyo.Drift.DVDRip.XviD-DiAMOND.avi.torrent
Ice Age 2-The Meltdown[2006]DvDrip AC3[Eng]-aXXo.torrent
Mortal.Kombat.1995.Swesub.DvdRip.Xvid-Bille.torrent
Bergman Ingmar Cries and Whispers Rop1972 DVDRip XviD ENG ESP PtBR Subtitles by espantalho.torrent
The.Black.Dahlia.2006.iTALiAN.LD.DVDRip.XviD-SiLENT [COLOMBO-BT.ORG][CINEMA.ITALIANO].torrent
Jaws 2 SWESUB DVDrip XviD.torrent
Soylent.Green.1973.WS.DVDRip.XviD-AXIAL.torrent

Free images hosting for your posts




 

Recent searches:
Dracula Untold how the universe works s02e09 audiczion ANDIAMO A QUEL PAESE Now You See Me I maghi del crimine spartacus s02 ita anita rinaldi omnipage unthink Bad Moon Rising discography Gotham S01E10 wrong turn 2 frozen ita CCleaner professional shake it off tiziano ferro 2014 audiolibri italian office microsoft FR alberto radius to the moon im going explicita piet piraat Walking dead 09 stephenie meyer ebook ITA ipa LA GENTE CHE STA BENE website x5 professional 11 unsealed white collar s06e03 Revenge atv 2008 call of duty
logo


MyDNS.pro GeoIPDNS professional DNS hosting

Affordable VPN service Affordable DNS hosting, GeoDNS, Managed DNS Torrentz.to Torrentz.sx Torrentz.ms Torrents.sx Torrents.si Torrents.dj