I'm just loving these guys !

HighSpeed downloads:
Added TitleSpeed
24-10-2014WARREN.G.-.TAKE.A.LOOK.OVER.YOUR.SHOULDER.(REALITY).-.CUSTOM.REM1327 Kb/s
28-10-2014Warren.G.-.Take.a.Look.Over.Your.Shoulder.(Reality).-.Custom.Rem.rar1436 Kb/s
25-10-2014[COMPLETE]Warren.G.-.Take.a.Look.Over.Your.Shoulder.(Reality).-.Custom.Rem.zip2119 Kb/s
26-10-2014[FULL RELEASE]Warren.G.-.Take.a.Look.Over.Your.Shoulder.(Reality).-.Custom.Rem1599 Kb/s
29-10-2014[FULL]Warren.G.-.Take.a.Look.Over.Your.Shoulder.(Reality).-.Custom.Rem1308 Kb/s
25-10-2014[HIGH SPEED]Warren.G.-.Take.a.Look.Over.Your.Shoulder.(Reality).-.Custom.Rem2032 Kb/s
30-10-2014[TRUSTED]Warren.G.-.Take.a.Look.Over.Your.Shoulder.(Reality).-.Custom.Rem1952 Kb/s
  Added: 13 Sep 2012 22:28:11
  Checked: Not yet
  Tracker(s): http://tracker.thepiratebay.org/announce
udp://tracker.openbittorrent.com:80
udp://tracker.publicbt.com:80
udp://tracker.istole.it:80
udp://tracker.ccc.de:80
udp://tracker.ex.ua:80/announce
udp://fr33dom.h33t.com:3310/announce
http://exodus.desync.com/announce
http://cpleft.com:2710/announce
http://pubt.net:2710/announce
udp://tracker.1337x.org:80/announce
  Hash: 9EE096C65125519F53E846C92007E9F8852DED4F
  File(s): 01 - Intro.flac - 3417561
02 - Annie Mae.flac - 27270825
03 - Smokin' Me Out.flac - 26396957
04 - Reverend Eazy Dick.flac - 3030250
05 - Reality.flac - 24192146
06 - Interlude.flac - 1702479
07 - Young Fun.flac - 26378225
08 - What We Go Through.flac - 26134681
09 - We Brings Heat.flac - 26297344
10 - Can You Feel It.flac - 24548363
11 - Transformers.flac - 20178270
12 - Reel Tight Intro.flac - 2110046
13 - Relax Ya Mind.flac - 23975088
14 - To All D.J.'s.flac - 21499496
15 - Back Up.flac - 25414293
16 - What's Love Got To Do With It (Ft. Adina Howard).flac - 30177489
17 - I Shot The Sheriff.flac - 30556423
18 - What's Love Got To Do With It (Remix).flac - 26732258
Artwork\01.jpg - 157155
Artwork\02.jpg - 104155
Artwork\03.jpg - 131717
Artwork\back.jpg - 186637
Artwork\cd alternate.jpg - 172143
Artwork\cd.jpg - 215417
Artwork\front alternate.jpg - 230702
Artwork\front.jpg - 1392565
Checksums.ffp - 1092
facebook.txt - 57
foo_dr.txt - 1921
foo_dr_original.txt - 1921
process.txt - 2624
Warren G - Take a Look Over Your Shoulder (Reality).flac.cue - 2706
Warren G - Take a Look Over Your Shoulder (Reality).wav.cue - 2670
  Description:
Warren G - Take a Look Over Your Shoulder  Reality  - Custom Remaster by MC Lurken
1 - Intro
2 - Annie Mae
3 - Smokin  39; Me Out
4 - Reverend Eazy Dick
5 - Reality
6 - Interlude
7 - Young Fun
8 - What We Go Through
9 - We Brings Heat
10 - Can You Feel It
11 - Transformers
12 - Reel Tight Intro
13 - Relax Ya Mind
14 - To All D.J.  39;s
15 - Back Up
16 - What  39;s Love Got To Do With It  Ft. Adina Howard 
17 - I Shot The Sheriff
18 - What  39;s Love Got To Do With It  Remix 
Setup:
-HP G72-250US
-Intel Core i3 M350 2.27GHz
-8Gb PC3-10700 RAM
-Win7 64-bit SP1
-SB X-Fi Surround 5.1
Process:
-Original 16-bit/44.1kHz files joined in Wavelab 6
-Remove DC offset and save as 64-bit float/44.1kHz
-Resample to 384kHz in Wavelab w/crystal resampler ultra slow  relax background priority
-Create new 64-bit/384kHz master recording in Wavelab  1.72db recording gain 
As reported in Wavelab:
-Original 16-bit/44.1kHz: Apparent Bit Resolution = 16, Peak = -1.716db
-With DC Offset Removed: Apparent Bit Resolution = 20, Peak = -1.723db
-64-bit/384kHz Recording: Apparent Bit Resolution = 39, Peak = 0db
-Resample new 64-bit/384kHz master recording to 64-bit/44.1kHz in Wavelab w/crystal resampler ultra
slow  relax background priority
-Apply MBIT  16-bit Dither in Wavelab w/Izotope Ozone 5 VST Plugin
-Flac encode level 0 with Trader  39;s Little Helper
-Tag and pic with xrecode II
foobar2000 1.1.14a / Dynamic Range Meter 1.1.1
log date: 2012-09-12 13:50:32
--------------------------------------------------------------------------------
Analyzed: ? / ?
--------------------------------------------------------------------------------
DR         Peak         RMS     Duration Track
--------------------------------------------------------------------------------
DR15      -2.84 dB   -20.70 dB      0:31 ?-01 - Intro
DR8        0.00 dB   -10.01 dB      3:53 ?-02 - Annie Mae
DR10       0.00 dB   -11.48 dB      3:41 ?-03 - Smokin  39; Me Out
DR13      -0.84 dB   -16.69 dB      0:30 ?-04 - Reverend Eazy Dick
DR9       -0.32 dB   -11.03 dB      3:31 ?-05 - Reality
DR9       -3.93 dB   -18.47 dB      0:17 ?-06 - Interlude
DR10      -0.02 dB   -11.58 dB      3:37 ?-07 - Young Fun
DR7       -0.04 dB    -9.00 dB      3:41 ?-08 - What We Go Through
DR9       -0.28 dB   -11.27 dB      3:47 ?-09 - We Brings Heat
DR7       -0.34 dB    -8.42 dB      3:21 ?-10 - Can You Feel It
DR8       -0.14 dB    -8.99 dB      3:01 ?-11 - Transformers
DR8       -1.04 dB   -11.63 dB      0:21 ?-12 - Reel Tight Intro
DR8       -0.35 dB    -9.41 dB      3:29 ?-13 - Relax Ya Mind
DR8       -0.61 dB   -10.61 dB      3:01 ?-14 - To All D.J.  39;s
DR8       -0.34 dB   -10.44 dB      3:46 ?-15 - Back Up
DR8       -0.40 dB   -10.39 dB      4:15 ?-16 - What  39;s Love Got To Do With It  Ft. Adina Howard

DR9       -0.49 dB   -10.56 dB      4:07 ?-17 - I Shot The Sheriff
DR8       -0.66 dB   -10.99 dB      3:54 ?-18 - What  39;s Love Got To Do With It  Remix 
--------------------------------------------------------------------------------
Number of tracks:  18
Official DR value: DR9
Samplerate:        44100 Hz
Channels:          2
Bits per sample:   16
Bitrate:           1411 kbps
Codec:             PCM
enjoy :   
  Similar torrents:Warren G - Take a Look Over Your Shoulder (Reality) - Custom Remaster by MC Lurken 24-bit 96kHz flac.torrent
Warren G - Take A Look Over Your Shoulder (reality) 1997 mp3@196kbs Roman Gie.torrent
Warren G - Take A Look Over Your Shoulder Dailynova.torrent
Warren G - Take A Look Over Your Shoulder(1997)mp3*192.torrent
Korn - Take a Look in the Mirror (2003).torrent
Eskimo - Take A Look Out There-2004-MYCEL.torrent
Take a look into.XXX.VHSRIP.XVID.HUNDUB-PORNOLOVERBLOG.torrent
Footville com - Madison Parker (Take a look).torrent
Misc eBooks Scans (take a look, good stuff!).torrent
Korn - Take A Look In The Mirror (2003) WMA320.torrent

Free images hosting for your posts




 

Recent searches:
nuvi mindhunters los lakers parental knife dvd polà una vita da formica pta bluray disney miriam gonzales kat prototype pna map proFile juliette buttman magazine mazinga ita dvd power2GO ihsahn cock worship teen s t a l k e r kylie minogue avi diamond 13 2009 hitman blood pc jenna mp4 queer as hit mania estate dublado blu ray bob dylan rare disney dvd ita
logo


MyDNS.pro GeoIPDNS professional DNS hosting

Affordable VPN service Affordable DNS hosting, GeoDNS, Managed DNS Torrentz.to Torrentz.sx Torrentz.ms Torrents.sx Torrents.si Torrents.dj