HighSpeed downloads:
Added TitleSpeed
21-03-2017STRIKE.BACK.S03E07.HDTV.XVID-MRX2413 Kb/s
18-03-2017Strike.Back.S03E07.HDTV.Xvid-MrX.rar1963 Kb/s
23-03-2017[COMPLETE]Strike.Back.S03E07.HDTV.Xvid-MrX.zip2215 Kb/s
21-03-2017[FULL RELEASE]Strike.Back.S03E07.HDTV.Xvid-MrX1905 Kb/s
21-03-2017[FULL]Strike.Back.S03E07.HDTV.Xvid-MrX1789 Kb/s
19-03-2017[HIGH SPEED]Strike.Back.S03E07.HDTV.Xvid-MrX1560 Kb/s
18-03-2017[TRUSTED]Strike.Back.S03E07.HDTV.Xvid-MrX1326 Kb/s

  .torrent

   
  Added: 01 Jan 1970 01:00:00
  Checked: Not yet
  Tracker(s):
  Hash:
  File(s): -
  Description:
Strike.Back.S03E07.HDTV.Xvid-MrX
http://www.cinemax.com/strike-back 
http://www.imdb.com/title/tt1492179/
General
Complete name                            : Strike.Back.S03E07.HDTV.Xvid-MrX.avi
Format                                   : AVI
Format/Info                              : Audio Video Interleave
File size                                : 550 MiB
Duration                                 : 47mn 19s
Overall bit rate mode                    : Variable
Overall bit rate                         : 1 626 Kbps
Video
ID                                       : 0
Format                                   : MPEG-4 Visual
Format profile                           : Advanced Simple@L5
Format settings, BVOP                    : 1
Format settings, QPel                    : No
Format settings, GMC                     : No warppoints
Format settings, Matrix                  : Default  H.263 
Muxing mode                              : Packed bitstream
Codec ID                                 : XVID
Codec ID/Hint                            : XviD
Duration                                 : 47mn 19s
Bit rate                                 : 1 465 Kbps
Width                                    : 640 pixels
Height                                   : 352 pixels
Display aspect ratio                     : 16:9
Frame rate                               : 23.976 fps
Color space                              : YUV
Chroma subsampling                       : 4:2:0
Bit depth                                : 8 bits
Scan type                                : Progressive
Compression mode                         : Lossy
Bits/ Pixel Frame                        : 0.271
Stream size                              : 496 MiB  90  
Writing library                          : XviD 1.2.1  UTC 2008-12-04 
Audio
ID                                       : 1
Format                                   : MPEG Audio
Format version                           : Version 1
Format profile                           : Layer 3
Codec ID                                 : 55
Codec ID/Hint                            : MP3
Duration                                 : 47mn 19s
Bit rate mode                            : Variable
Bit rate                                 : 148 Kbps
Minimum bit rate                         : 128 Kbps
Channel s                                : 2 channels
Sampling rate                            : 48.0 KHz
Compression mode                         : Lossy
Stream size                              : 50.0 MiB  9  
Alignment                                : Aligned on interleaves
Interleave, duration                     : 24 ms  0.58 video frame 
Interleave, preload duration             : 223 ms
Title                                    : Strike.Back.S03E07
Writing library                          : LAME3.99r
Encoding settings                        : -m s -V 4 -q 0 -lowpass 17.5 --vbr-mt -b 128
  Similar torrents:

Free images hosting for your posts



logo


MyDNS.pro GeoIPDNS professional DNS hosting
Torrentz.to